请选择 进入手机版 | 继续访问电脑版

YMLY-影迷乐园-特效字幕 蓝光原盘 1080P 高清动漫电影电视剧

 找回密码
 立即注册
搜索
查看: 2540|回复: 119

[美国] [115][2021][尚气与十环传奇][简中.中英字幕][20.3GB][MKV][Shang.Chi.and.the.Legend.of.the.Ten.Rings.2021.UHD.2160p.x265.10bit.HDR.mUHD-FRDS]

  [复制链接]
  • TA的每日心情
    奋斗
    2020-2-21 00:36
  • 签到天数: 656 天

    [LV.9]以坛为家II

    1万

    主题

    1万

    帖子

    22万

    积分

    超级版主

    与齐同行,是最初的梦想,也是一辈子的执着~

    Rank: 16Rank: 16Rank: 16Rank: 16

    积分
    221070

    内测勋章最佳新人十二生肖之猴VIP包月勋章影迷男神小土豪勋章土豪勋章富甲一方精华勋章金话筒主题达人灌水之王

    发表于 2021-11-12 23:57:47 | 显示全部楼层 |阅读模式
    下载说明:

    只能115会员离线下载,其它工具都下载不了,购买前请看清楚,一经出售,一概不退款!


    ----转载自FRDS,感谢压制和原发布人员,特此鸣谢!----





    ◎译  名 尚气与十环传奇/上气/上气:十戒传奇/上气与十戒传奇/上气与十诫传说/商奇/尚气/尚气与十戒传奇/尚气与十指环传奇/尚气与十环帮传奇(港)
    ◎片  名 Shang-Chi and the Legend of the Ten Rings
    ◎年  代 2021
    ◎产  地 美国,澳大利亚
    ◎类  别 动作 / 奇幻 / 冒险
    ◎语  言 英语,汉语普通话
    ◎上映日期 2021-09-03(美国) / 2021-11-12(美国网络)
    ◎IMDb评分  7.8/10 from 130693 users
    ◎IMDb链接  https://www.imdb.com/title/tt9376612/
    ◎豆瓣评分 6.6/10 from 55796 users
    ◎豆瓣链接 https://movie.douban.com/subject/30394797/
    ◎片  长 132分钟
    ◎导  演 德斯汀·克里顿 Destin Cretton
    ◎编  剧 戴夫·卡拉汉姆 Dave Callaham / 史蒂夫·恩格尔哈特 Steve Englehart / 吉姆·斯特林 Jim Starlin / 德斯汀·克里顿 Destin Cretton
    ◎主  演 刘思慕 Simu Liu
           梁朝伟 Tony Leung Chiu Wai
           奥卡菲娜 Awkwafina
           张梦儿 Meng'er Zhang
           陈法拉 Fala Chen
           杨紫琼 Michelle Yeoh
           元华 Wah Yuen
           本尼迪克特·王 Benedict Wong
           弗罗里安·穆特鲁 Florian Munteanu
           安迪·黎 Andy Le
           本·金斯利 Ben Kingsley
           斯蒂芬妮·许 Stephanie Hsu
           库纳尔·杜德赫克 Kunal Dudheker
           周采芹 Tsai Chin
           乔迪·朗 Jodi Long
           达拉斯·刘 Dallas Liu
           钱信伊 Ronny Chieng
           费尔南多·钱 Fernando Chien
           扎克·切利 Zach Cherry
           刘家勇 Kar-Yung Lau
           赫小哈 Harmonie He
           Lynette Curran Lynette Curran
           迪·布拉雷·贝克尔 Dee Bradley Baker
           布丽·拉尔森 Brie Larson
           马克·鲁弗洛 Mark Ruffalo
           蒂姆·罗斯 Tim Roth
           亚历山大·陈 Alexandre Chen

    ◎标  签 漫威 | 超级英雄 | 美国 | 漫威电影宇宙 | 动作 | 2021 | 奇幻 | 科幻

    ◎简  介

      故事发生在《复仇者联盟4:终局之战》事件之后,尚气(刘思慕 饰)卷入秘密的十环帮组织,被迫面对自己隐秘的过去经历。

    1. General
    2. Unique ID                                : 190933789061880508428959177028129578075 (0x8FA4829AD37CE4EDB9F713146F10DC5B)
    3. Shang.Chi.and.the.Legend.of.the.Ten.Rings.2021.UHD.2160p.x265.10bit.HDR.mUHD-FRDS.mkv
    4. Format                                   : Matroska
    5. Format version                           : Version 4
    6. File size                                : 20.3 GiB
    7. Duration                                 : 2 h 12 min
    8. Overall bit rate mode                    : Variable
    9. Overall bit rate                         : 22.0 Mb/s
    10. Encoded date                             : UTC 2021-11-11 11:55:24
    11. Writing application                      : mkvmerge v62.0.0 (‘Apollo‘) 64-bit
    12. Writing library                          : libebml v1.4.2 + libmatroska v1.6.4

    13. Video
    14. ID                                       : 1
    15. Format                                   : HEVC
    16. Format/Info                              : High Efficiency Video Coding
    17. Format profile                           : Main [email protected]@High
    18. HDR format                               : SMPTE ST 2086, HDR10 compatible
    19. Codec ID                                 : V_MPEGH/ISO/HEVC
    20. Duration                                 : 2 h 12 min
    21. Bit rate                                 : 17.7 Mb/s
    22. Width                                    : 3 840 pixels
    23. Height                                   : 1 608 pixels
    24. Display aspect ratio                     : 2.40:1
    25. Frame rate mode                          : Constant
    26. Frame rate                               : 23.976 (24000/1001) FPS
    27. Color space                              : YUV
    28. Chroma subsampling                       : 4:2:0
    29. Bit depth                                : 10 bits
    30. Bits/(Pixel*Frame)                       : 0.119
    31. Stream size                              : 16.3 GiB (80%)
    32. Writing library                          : x265 3.3+3-g8f8e332f1+29:[Windows][#Erg`Djh#][@Yuuki] made by @Dongfangbubai
    33. Encoding settings                        : rc=crf / crf=18.0000 / qcomp=0.70 / qpstep=4 / stats-write=0 / stats-read=0 / vbv-maxrate=160000 / vbv-bufsize=160000 / vbv-init=0.9 / crf-max=0.0 / crf-min=0.0 / no-lossless / no-cu-lossless / aq-mode=3 / aq-strength=0.80 / cbqpoffs=-3 / crqpoffs=-3 / ipratio=1.40 / pbratio=1.30 / psy-rd=2.00 / psy-rdoq=3.00 / deblock=-1:-1 / ref=5 / limit-refs=0 / no-limit-modes / bframes=8 / b-adapt=2 / bframe-bias=0 / b-pyramid / b-intra / weightp / weightb / min-keyint=23 / max-keyint=240 / rc-lookahead=60 / gop-lookahead=0 / scenecut=40 / hist-scenecut=0 / radl=0 / max-cu-size=32 / min-cu-size=8 / me=3 / subme=4 / merange=25 / rdoq-level=2 / rd=4 / rdpenalty=1 / dynamic-rd=0.00 / no-rd-refine / ----- / no-cutree / no-sao / no-rect / no-amp / no-open-gop / wpp / pmode / pme / no-psnr / no-ssim / nr-intra=0 / nr-inter=0 / no-constrained-intra / no-strong-intra-smoothing / max-tu-size=32 / tu-inter-depth=2 / tu-intra-depth=2 / limit-tu=0 / qg-size=32 / qpmax=69 / qpmin=0 / ----- / cpuid=1176575 / frame-threads=6 / numa-pools=54,- / log-level=2 / input-csp=1 / input-res=3840x1608 / interlace=0 / level-idc=0 / high-tier=1 / uhd-bd=0 / no-allow-non-conformance / repeat-headers / no-aud / hrd / info / hash=0 / no-temporal-layers / lookahead-slices=0 / no-splice / no-intra-refresh / no-ssim-rd / signhide / no-tskip / max-merge=3 / temporal-mvp / no-frame-dup / no-hme / no-analyze-src-pics / no-sao-non-deblock / selective-sao=0 / no-early-skip / no-rskip / no-fast-intra / no-tskip-fast / no-splitrd-skip / zone-count=0 / no-strict-cbr / no-rc-grain / no-const-vbv / sar=0 / overscan=0 / videoformat=5 / range=0 / colorprim=9 / transfer=16 / colormatrix=9 / chromaloc=0 / display-window=0 / master-display=G(13250,34500)B(7500,3000)R(34000,16000)WP(15635,16450)L(10000000,1) / cll=0,0 / min-luma=0 / max-luma=1023 / log2-max-poc-lsb=8 / vui-timing-info / vui-hrd-info / slices=1 / no-opt-qp-pps / no-opt-ref-list-length-pps / no-multi-pass-opt-rps / scenecut-bias=0.05 / hist-threshold=0.01 / no-opt-cu-delta-qp / no-aq-motion / hdr10 / hdr10-opt / no-dhdr10-opt / no-idr-recovery-sei / analysis-reuse-level=0 / analysis-save-reuse-level=0 / analysis-load-reuse-level=0 / scale-factor=0 / refine-intra=0 / refine-inter=0 / refine-mv=1 / refine-ctu-distortion=0 / no-limit-sao / ctu-info=0 / no-lowpass-dct / refine-analysis-type=0 / copy-pic=1 / max-ausize-factor=1.0 / no-dynamic-refine / no-single-sei / no-hevc-aq / no-svt / no-field / qp-adaptation-range=1.00 / no-scenecut-aware-qpconformance-window-offsets / right=0 / bottom=0
    34. Default                                  : Yes
    35. Forced                                   : No
    36. Color range                              : Limited
    37. Color primaries                          : BT.2020
    38. Transfer characteristics                 : PQ
    39. Matrix coefficients                      : BT.2020 non-constant
    40. Mastering display color primaries        : Display P3
    41. Mastering display luminance              : min: 0.0001 cd/m2, max: 1000 cd/m2

    42. Audio
    43. ID                                       : 2
    44. Format                                   : MLP FBA 16-ch
    45. Format/Info                              : Meridian Lossless Packing FBA with 16-channel presentation
    46. Commercial name                          : Dolby TrueHD with Dolby Atmos
    47. Codec ID                                 : A_TRUEHD
    48. Duration                                 : 2 h 12 min
    49. Bit rate mode                            : Variable
    50. Bit rate                                 : 4 214 kb/s
    51. Maximum bit rate                         : 7 200 kb/s
    52. Channel(s)                               : 8 channels
    53. Channel layout                           : L R C LFE Ls Rs Lb Rb
    54. Sampling rate                            : 48.0 kHz
    55. Frame rate                               : 1 200.000 FPS (40 SPF)
    56. Compression mode                         : Lossless
    57. Stream size                              : 3.90 GiB (19%)
    58. Language                                 : English
    59. Default                                  : Yes
    60. Forced                                   : No
    61. Number of dynamic objects                : 13
    62. Bed channel count                        : 1 channel
    63. Bed channel configuration                : LFE

    64. Text #1
    65. ID                                       : 3
    66. Format                                   : PGS
    67. Muxing mode                              : zlib
    68. Codec ID                                 : S_HDMV/PGS
    69. Codec ID/Info                            : Picture based subtitle format used on BDs/HD-DVDs
    70. Duration                                 : 2 h 10 min
    71. Bit rate                                 : 12.8 kb/s
    72. Count of elements                        : 2171
    73. Stream size                              : 12.0 MiB (0%)
    74. Language                                 : English
    75. Default                                  : Yes
    76. Forced                                   : No

    77. Text #2
    78. ID                                       : 4
    79. Format                                   : PGS
    80. Muxing mode                              : zlib
    81. Codec ID                                 : S_HDMV/PGS
    82. Codec ID/Info                            : Picture based subtitle format used on BDs/HD-DVDs
    83. Duration                                 : 2 h 10 min
    84. Bit rate                                 : 11.1 kb/s
    85. Count of elements                        : 2566
    86. Stream size                              : 10.4 MiB (0%)
    87. Title                                    : 简中
    88. Language                                 : Chinese
    89. Default                                  : No
    90. Forced                                   : No

    91. Text #3
    92. ID                                       : 5
    93. Format                                   : PGS
    94. Muxing mode                              : zlib
    95. Codec ID                                 : S_HDMV/PGS
    96. Codec ID/Info                            : Picture based subtitle format used on BDs/HD-DVDs
    97. Duration                                 : 2 h 10 min
    98. Bit rate                                 : 19.8 kb/s
    99. Count of elements                        : 2171
    100. Stream size                              : 18.5 MiB (0%)
    101. Title                                    : 双语
    102. Language                                 : Chinese
    103. Default                                  : No
    104. Forced                                   : No

    105. Menu
    106. 00:00:00.000                             : :第 01 章
    107. 00:10:08.917                             : :第 02 章
    108. 00:18:13.333                             : :第 03 章
    109. 00:26:37.250                             : :第 04 章
    110. 00:36:05.375                             : :第 05 章
    111. 00:46:11.167                             : :第 06 章
    112. 00:53:33.792                             : :第 07 章
    113. 01:02:41.417                             : :第 08 章
    114. 01:13:43.958                             : :第 09 章
    115. 01:21:31.208                             : :第 10 章
    116. 01:30:22.625                             : :第 11 章
    117. 01:43:18.333                             : :第 12 章
    118. 01:59:19.875                             : :第 13 章
    复制代码






    购买主题 已有 71 人购买  本主题需向作者支付 20 大洋 才能浏览
    郑重声明:
    本人提供的所有影视作品均是在网上搜集,任何涉及商业盈利目的均不得使用,否则产生的一切后果将由您自己承担!
    本人不对本人所发布的任何内容负任何法律责任!该下载内容仅做宽带测试使用,请在下载后24小时内删除。请购买正版!
    本人列出的文件没有保存在本站的服务器上,本人仅负责连接,本人对被传播文件的内容一无所知。
    如侵犯视频原作者或发行商版权,请联系本人删除!
    回复

    使用道具 举报

  • TA的每日心情
    擦汗
    18 小时前
  • 签到天数: 309 天

    [LV.8]以坛为家I

    14

    主题

    984

    帖子

    87

    积分

    中级影迷

    Rank: 3Rank: 3

    积分
    87
    发表于 2021-11-13 00:03:13 | 显示全部楼层
    很棒的资源!
    回复

    使用道具 举报

  • TA的每日心情
    开心
    18 小时前
  • 签到天数: 88 天

    [LV.6]常住居民II

    8

    主题

    927

    帖子

    214

    积分

    高级影迷

    Rank: 4

    积分
    214
    发表于 2021-11-13 00:07:34 | 显示全部楼层
    其实这片还是很不错的
    回复

    使用道具 举报

  • TA的每日心情
    擦汗
    昨天 21:39
  • 签到天数: 276 天

    [LV.8]以坛为家I

    0

    主题

    304

    帖子

    111

    积分

    中级影迷

    Rank: 3Rank: 3

    积分
    111
    发表于 2021-11-13 00:30:28 | 显示全部楼层
    谢谢分享高清资源
    回复

    使用道具 举报

  • TA的每日心情
    开心
    昨天 15:51
  • 签到天数: 192 天

    [LV.7]常住居民III

    0

    主题

    1239

    帖子

    64

    积分

    初级影迷

    Rank: 2

    积分
    64
    发表于 2021-11-13 00:40:11 | 显示全部楼层
    谢谢分享高清资源
    回复

    使用道具 举报

  • TA的每日心情
    开心
    昨天 15:56
  • 签到天数: 186 天

    [LV.7]常住居民III

    0

    主题

    1349

    帖子

    74

    积分

    中级影迷

    Rank: 3Rank: 3

    积分
    74
    发表于 2021-11-13 00:45:51 | 显示全部楼层
    谢谢分享高清资源
    回复

    使用道具 举报

  • TA的每日心情
    无聊
    15 小时前
  • 签到天数: 405 天

    [LV.9]以坛为家II

    1

    主题

    3289

    帖子

    239

    积分

    高级影迷

    Rank: 4

    积分
    239
    发表于 2021-11-13 00:49:58 | 显示全部楼层
    多谢大佬分享
    回复

    使用道具 举报

  • TA的每日心情

    17 小时前
  • 签到天数: 569 天

    [LV.9]以坛为家II

    4

    主题

    4036

    帖子

    243

    积分

    高级影迷

    Rank: 4

    积分
    243
    发表于 2021-11-13 01:34:47 | 显示全部楼层

    很棒的资源!
    回复

    使用道具 举报

  • TA的每日心情
    开心
    半小时前
  • 签到天数: 142 天

    [LV.7]常住居民III

    0

    主题

    439

    帖子

    135

    积分

    中级影迷

    Rank: 3Rank: 3

    积分
    135
    发表于 2021-11-13 05:34:20 | 显示全部楼层
    感谢楼主分享
    回复

    使用道具 举报

  • TA的每日心情
    开心
    9 小时前
  • 签到天数: 552 天

    [LV.9]以坛为家II

    3

    主题

    1483

    帖子

    87

    积分

    中级影迷

    Rank: 3Rank: 3

    积分
    87
    发表于 2021-11-13 05:59:43 | 显示全部楼层
    漫威首部亚裔主角的超英电影
    回复

    使用道具 举报

    您需要登录后才可以回帖 登录 | 立即注册

    本版积分规则

    QQ|Archiver|手机版|小黑屋|影迷乐园

    GMT+8, 2022-1-20 18:08 , Processed in 0.109716 second(s), 27 queries .

    Powered by Discuz! X3.4

    Copyright © 2001-2020, Tencent Cloud.

    快速回复 返回顶部 返回列表