请选择 进入手机版 | 继续访问电脑版

YMLY-影迷乐园-特效字幕 蓝光原盘 1080P 高清动漫电影电视剧

 找回密码
 立即注册
搜索
查看: 1036|回复: 39

[韩国] [115+百度][2011-2014][1080P][需要浪漫S01-S03.全三季.Netflix版][韩语.简繁.多国语言软字幕][MKV][99.8GB][I.Need.Romance.S01-S03.1080p.NF.WEB-DL.DDP2.0.x264-ARiN]

[复制链接]
  • TA的每日心情
    奋斗
    2020-2-21 00:36
  • 签到天数: 656 天

    [LV.9]以坛为家II

    1万

    主题

    1万

    帖子

    22万

    积分

    超级版主

    与齐同行,是最初的梦想,也是一辈子的执着~

    Rank: 16Rank: 16Rank: 16Rank: 16

    积分
    221091

    内测勋章最佳新人十二生肖之猴VIP包月勋章影迷男神小土豪勋章土豪勋章富甲一方精华勋章金话筒主题达人灌水之王

    发表于 2021-10-30 21:10:22 | 显示全部楼层 |阅读模式
    下载说明:

    百度网盘分享极其不稳定,如有链接失效,请第一时间站内短消息通知我,上线后会第一时间补发!


    Netflix源,内封多国语言软字幕!可自行选择和关闭字幕。



    ◎译  名 需要浪漫/I Need Romance
    ◎片  名 로맨스가 필요해
    ◎年  代 2011
    ◎产  地 韩国
    ◎类  别 爱情
    ◎语  言 韩语
    ◎上映日期 2011-06-13(韩国)
    ◎IMDb评分  7.1/10 from 277 users
    ◎IMDb链接  https://www.imdb.com/title/tt3340752/
    ◎豆瓣评分 7.9/10 from 8441 users
    ◎豆瓣链接 https://movie.douban.com/subject/6393363/
    ◎集  数 16
    ◎片  长 45分钟
    ◎导  演 李昌翰  Chang-han Lee
    ◎编  剧 郑铉静 Hyeon-jeong Jeong
    ◎主  演 金桢勋 Jeong-Hoon Kim
           曹如晶 Yeo-Jeong Jo
           崔汝珍 Yeo-jin Choi
           崔松贤 Song-hyun Choi
           崔振赫 Jin-Hyeok Choi
           崔允素 Yoon-so Choi
           河延珠 Yeon-joo Ha
           金炯民 Hyung-min Kim
           李宽勋 Kwang-hoon Lee

    ◎标  签 韩剧 | 爱情 | 金桢勋 | 需要浪漫 | 韩国 | 看过的电视剧 | 2011 | 女性

    ◎简  介

      <需要浪漫>将全面描述韩国女性各种爱的形态,被视为是韩国版的<欲望都市>.

    1. General
    2. Unique ID                      : 176589927924176520525475573985732304247 (0x84D9FBA652A75751AB1A4FD381119D77)
    3. Format                         : Matroska
    4. Format version                 : Version 4
    5. File size                      : 2.14 GiB
    6. Duration                       : 42 min 1 s
    7. Overall bit rate mode          : Variable
    8. Overall bit rate               : 7 280 kb/s
    9. Encoded date                   : UTC 2017-08-31 18:32:24
    10. Writing application            : mkvmerge v13.0.0 ('The Juggler') 64bit
    11. Writing library                : libebml v1.3.4 + libmatroska v1.4.5

    12. Video
    13. ID                             : 1
    14. Format                         : AVC
    15. Format/Info                    : Advanced Video Codec
    16. Format profile                 : [email protected]
    17. Format settings                : CABAC / 3 Ref Frames
    18. Format settings, CABAC         : Yes
    19. Format settings, Reference fra : 3 frames
    20. Codec ID                       : V_MPEG4/ISO/AVC
    21. Duration                       : 42 min 1 s
    22. Bit rate mode                  : Variable
    23. Bit rate                       : 7 150 kb/s
    24. Maximum bit rate               : 10.7 Mb/s
    25. Width                          : 1 920 pixels
    26. Height                         : 1 080 pixels
    27. Display aspect ratio           : 16:9
    28. Frame rate mode                : Constant
    29. Frame rate                     : 29.970 (30000/1001) FPS
    30. Color space                    : YUV
    31. Chroma subsampling             : 4:2:0
    32. Bit depth                      : 8 bits
    33. Scan type                      : Progressive
    34. Bits/(Pixel*Frame)             : 0.115
    35. Stream size                    : 2.10 GiB (98%)
    36. Writing library                : x264 core 118
    37. Encoding settings              : cabac=1 / ref=3 / deblock=1:0:0 / analyse=0x1:0x111 / me=umh / subme=10 / psy=1 / psy_rd=1.00:0.00 / mixed_ref=1 / me_range=24 / chroma_me=1 / trellis=2 / 8x8dct=0 / cqm=0 / deadzone=21,11 / fast_pskip=1 / chroma_qp_offset=-2 / threads=8 / sliced_threads=0 / nr=0 / decimate=1 / interlaced=0 / bluray_compat=0 / constrained_intra=0 / bframes=2 / b_pyramid=0 / b_adapt=2 / b_bias=0 / direct=3 / weightb=1 / open_gop=0 / weightp=2 / keyint=60 / keyint_min=31 / scenecut=0 / intra_refresh=0 / rc_lookahead=0 / rc=2pass / mbtree=1 / bitrate=7150 / ratetol=1.0 / qcomp=0.50 / qpmin=6 / qpmax=51 / qpstep=4 / cplxblur=20.0 / qblur=0.5 / vbv_maxrate=10725 / vbv_bufsize=14300 / nal_hrd=vbr / ip_ratio=1.40 / aq=1:1.00
    38. Default                        : Yes
    39. Forced                         : No

    40. Audio
    41. ID                             : 2
    42. Format                         : E-AC-3
    43. Format/Info                    : Enhanced AC-3
    44. Commercial name                : Dolby Digital Plus
    45. Codec ID                       : A_EAC3
    46. Duration                       : 42 min 1 s
    47. Bit rate mode                  : Constant
    48. Bit rate                       : 128 kb/s
    49. Channel(s)                     : 2 channels
    50. Channel layout                 : L R
    51. Sampling rate                  : 48.0 kHz
    52. Frame rate                     : 31.250 FPS (1536 SPF)
    53. Compression mode               : Lossy
    54. Stream size                    : 38.5 MiB (2%)
    55. Language                       : Korean
    56. Service kind                   : Complete Main
    57. Default                        : Yes
    58. Forced                         : No

    59. Text #1
    60. ID                             : 3
    61. Format                         : UTF-8
    62. Codec ID                       : S_TEXT/UTF8
    63. Codec ID/Info                  : UTF-8 Plain Text
    64. Duration                       : 41 min 24 s
    65. Bit rate                       : 81 b/s
    66. Count of elements              : 757
    67. Stream size                    : 24.7 KiB (0%)
    68. Language                       : English
    69. Default                        : No
    70. Forced                         : No

    71. Text #2
    72. ID                             : 4
    73. Format                         : UTF-8
    74. Codec ID                       : S_TEXT/UTF8
    75. Codec ID/Info                  : UTF-8 Plain Text
    76. Duration                       : 41 min 24 s
    77. Bit rate                       : 78 b/s
    78. Count of elements              : 757
    79. Stream size                    : 23.9 KiB (0%)
    80. Language                       : Spanish
    81. Default                        : No
    82. Forced                         : No

    83. Text #3
    84. ID                             : 5
    85. Format                         : UTF-8
    86. Codec ID                       : S_TEXT/UTF8
    87. Codec ID/Info                  : UTF-8 Plain Text
    88. Duration                       : 41 min 56 s
    89. Bit rate                       : 106 b/s
    90. Count of elements              : 855
    91. Stream size                    : 32.7 KiB (0%)
    92. Language                       : Korean
    93. Default                        : No
    94. Forced                         : No

    95. Text #4
    96. ID                             : 6
    97. Format                         : UTF-8
    98. Codec ID                       : S_TEXT/UTF8
    99. Codec ID/Info                  : UTF-8 Plain Text
    100. Duration                       : 41 min 23 s
    101. Bit rate                       : 70 b/s
    102. Count of elements              : 763
    103. Stream size                    : 21.4 KiB (0%)
    104. Title                          : Simplified
    105. Language                       : Chinese
    106. Default                        : No
    107. Forced                         : No

    108. Text #5
    109. ID                             : 7
    110. Format                         : UTF-8
    111. Codec ID                       : S_TEXT/UTF8
    112. Codec ID/Info                  : UTF-8 Plain Text
    113. Duration                       : 41 min 23 s
    114. Bit rate                       : 70 b/s
    115. Count of elements              : 830
    116. Stream size                    : 21.4 KiB (0%)
    117. Title                          : Traditional
    118. Language                       : Chinese
    119. Default                        : No
    120. Forced                         : No
    复制代码















    ◎译  名 需要浪漫2012/I Need Romance Season 2012/需要浪漫 第二季
    ◎片  名 &#47196;&#47592;&#49828;&#44032; &#54596;&#50836;&#54644; 2012
    ◎年  代 2012
    ◎产  地 韩国
    ◎类  别 爱情
    ◎语  言 韩语
    ◎上映日期 2012-06-20(韩国)
    ◎豆瓣评分 8.0/10 from 11394 users
    ◎豆瓣链接 https://movie.douban.com/subject/10788845/
    ◎集  数 16
    ◎片  长 40分钟
    ◎导  演 李政孝 Jung-hyo Lee / 张荣佑 Young-woo Jang
    ◎编  剧 郑铉静 Hyeon-jeong Jeong
    ◎主  演 郑有美 Yu-mi Jung
           李阵郁 Jin-wook Lee
           姜艺瑟 Kang Ye seul
           金智友 Ji-woo Kim
           金知硕 Ji-seok Kim
           金艺媛 Ye-won Kim
           郑糠云 Kyeo-woon Jeong
           金赛纶 Sae-ron Kim
           金叡园 Ye-won Kim
           河延珠 Yeon-joo Ha
           印乔镇 Gyo-Jin In
           金炯民 Hyung-min Kim
           许泰熙 Tae-hee Heo

    ◎标  签 韩剧 | 爱情 | 需要浪漫 | 韩国 | 2012 | 看过的电视剧 | TVN | 电视剧

    ◎简  介

      描述三个33岁女子面临爱情、亲情及友情的浪漫爱情喜剧。

    1. General
    2. Unique ID                      : 202765597458675974356913567388377236004 (0x988B3BCC2494395D9DF203ACAD6B4224)
    3. 需要浪漫\I Need Romance S02 1080p NF WEB-DL DDP2.0 x264-ARiN\I Need Romance S02E05 1080p NF WEB-DL DDP2.0 x264-ARiN.mkv
    4. Format                         : Matroska
    5. Format version                 : Version 4
    6. File size                      : 1.94 GiB
    7. Duration                       : 46 min 50 s
    8. Overall bit rate mode          : Variable
    9. Overall bit rate               : 5 920 kb/s
    10. Encoded date                   : UTC 2017-08-31 18:51:15
    11. Writing application            : mkvmerge v13.0.0 ('The Juggler') 64bit
    12. Writing library                : libebml v1.3.4 + libmatroska v1.4.5

    13. Video
    14. ID                             : 1
    15. Format                         : AVC
    16. Format/Info                    : Advanced Video Codec
    17. Format profile                 : [email protected]
    18. Format settings                : CABAC / 3 Ref Frames
    19. Format settings, CABAC         : Yes
    20. Format settings, Reference fra : 3 frames
    21. Codec ID                       : V_MPEG4/ISO/AVC
    22. Duration                       : 46 min 50 s
    23. Bit rate mode                  : Variable
    24. Bit rate                       : 5 800 kb/s
    25. Maximum bit rate               : 8 700 kb/s
    26. Width                          : 1 920 pixels
    27. Height                         : 1 080 pixels
    28. Display aspect ratio           : 16:9
    29. Frame rate mode                : Constant
    30. Frame rate                     : 23.976 (24000/1001) FPS
    31. Color space                    : YUV
    32. Chroma subsampling             : 4:2:0
    33. Bit depth                      : 8 bits
    34. Scan type                      : Progressive
    35. Bits/(Pixel*Frame)             : 0.117
    36. Stream size                    : 1.89 GiB (98%)
    37. Writing library                : x264 core 118
    38. Encoding settings              : cabac=1 / ref=3 / deblock=1:0:0 / analyse=0x1:0x111 / me=umh / subme=10 / psy=1 / psy_rd=1.00:0.00 / mixed_ref=1 / me_range=24 / chroma_me=1 / trellis=2 / 8x8dct=0 / cqm=0 / deadzone=21,11 / fast_pskip=1 / chroma_qp_offset=-2 / threads=8 / sliced_threads=0 / nr=0 / decimate=1 / interlaced=0 / bluray_compat=0 / constrained_intra=0 / bframes=2 / b_pyramid=0 / b_adapt=2 / b_bias=0 / direct=3 / weightb=1 / open_gop=0 / weightp=2 / keyint=48 / keyint_min=25 / scenecut=0 / intra_refresh=0 / rc_lookahead=0 / rc=2pass / mbtree=1 / bitrate=5800 / ratetol=1.0 / qcomp=0.50 / qpmin=6 / qpmax=51 / qpstep=4 / cplxblur=20.0 / qblur=0.5 / vbv_maxrate=8700 / vbv_bufsize=11600 / nal_hrd=vbr / ip_ratio=1.40 / aq=1:1.00
    39. Default                        : Yes
    40. Forced                         : No

    41. Audio
    42. ID                             : 2
    43. Format                         : E-AC-3
    44. Format/Info                    : Enhanced AC-3
    45. Commercial name                : Dolby Digital Plus
    46. Codec ID                       : A_EAC3
    47. Duration                       : 46 min 50 s
    48. Bit rate mode                  : Constant
    49. Bit rate                       : 128 kb/s
    50. Channel(s)                     : 2 channels
    51. Channel layout                 : L R
    52. Sampling rate                  : 48.0 kHz
    53. Frame rate                     : 31.250 FPS (1536 SPF)
    54. Compression mode               : Lossy
    55. Stream size                    : 42.9 MiB (2%)
    56. Language                       : Korean
    57. Service kind                   : Complete Main
    58. Default                        : Yes
    59. Forced                         : No

    60. Text #1
    61. ID                             : 3
    62. Format                         : UTF-8
    63. Codec ID                       : S_TEXT/UTF8
    64. Codec ID/Info                  : UTF-8 Plain Text
    65. Duration                       : 46 min 17 s
    66. Bit rate                       : 67 b/s
    67. Count of elements              : 736
    68. Stream size                    : 23.0 KiB (0%)
    69. Language                       : English
    70. Default                        : No
    71. Forced                         : No

    72. Text #2
    73. ID                             : 4
    74. Format                         : UTF-8
    75. Codec ID                       : S_TEXT/UTF8
    76. Codec ID/Info                  : UTF-8 Plain Text
    77. Duration                       : 46 min 17 s
    78. Bit rate                       : 61 b/s
    79. Count of elements              : 738
    80. Stream size                    : 20.8 KiB (0%)
    81. Language                       : Spanish
    82. Default                        : No
    83. Forced                         : No

    84. Text #3
    85. ID                             : 5
    86. Format                         : UTF-8
    87. Codec ID                       : S_TEXT/UTF8
    88. Codec ID/Info                  : UTF-8 Plain Text
    89. Duration                       : 46 min 47 s
    90. Bit rate                       : 95 b/s
    91. Count of elements              : 913
    92. Stream size                    : 32.7 KiB (0%)
    93. Language                       : Korean
    94. Default                        : No
    95. Forced                         : No

    96. Text #4
    97. ID                             : 6
    98. Format                         : UTF-8
    99. Codec ID                       : S_TEXT/UTF8
    100. Codec ID/Info                  : UTF-8 Plain Text
    101. Duration                       : 46 min 15 s
    102. Bit rate                       : 62 b/s
    103. Count of elements              : 742
    104. Stream size                    : 21.2 KiB (0%)
    105. Title                          : Simplified
    106. Language                       : Chinese
    107. Default                        : No
    108. Forced                         : No

    109. Text #5
    110. ID                             : 7
    111. Format                         : UTF-8
    112. Codec ID                       : S_TEXT/UTF8
    113. Codec ID/Info                  : UTF-8 Plain Text
    114. Duration                       : 46 min 15 s
    115. Bit rate                       : 62 b/s
    116. Count of elements              : 761
    117. Stream size                    : 21.1 KiB (0%)
    118. Title                          : Traditional
    119. Language                       : Chinese
    120. Default                        : No
    121. Forced                         : No
    复制代码










    ◎译  名 需要浪漫3/I Need Romance 3
    ◎片  名 &#47196;&#47592;&#49828;&#44032; &#54596;&#50836;&#54644;3
    ◎年  代 2014
    ◎产  地 韩国
    ◎类  别 剧情 / 爱情
    ◎语  言 韩语
    ◎上映日期 2014-01-13(韩国)
    ◎豆瓣评分 8.1/10 from 28418 users
    ◎豆瓣链接 https://movie.douban.com/subject/25773973/
    ◎集  数 16
    ◎片  长 45分钟
    ◎导  演 张荣佑 Young-woo Jang
    ◎编  剧 郑铉静 Hyeon-jeong Jeong
    ◎主  演 金素妍 So-yeon Kim
           盛骏 Jun Sung
           南宫珉 Min Namgung
           王智媛 Ji-won Wang
           尹胜雅 Seung-ah Yun
           朴有焕 Yuhwan Park
           朴孝朱 Hyo-ju Park
           朱相昱 Sang-wook Joo
           郑多彬 Da-bin Jung
           崔录运 Ro-woon Choi
           鄭宇植 Jeong Woo-sik
           徐智希 Seo Ji  Hee
           权娜拉 Na-ra Kwon
           尹艺熙 Yoon Ye Hee
           金知硕 Ji-seok Kim
           金永斌 Young-bin Kim

    ◎标  签 韩剧 | 爱情 | 金素妍 | 盛骏 | 韩国 | tvN | 2014 | 浪漫

    ◎简  介

      由于不幸的人生,曾经单纯善良的申珠妍(金素妍 饰)如今变得自私而又冷漠。所以,当她阔别了十七年的青梅竹马的玩伴朱浣(盛骏 饰)再度见到申珠妍时,几乎不敢相信这个傲慢泼辣的女子是他记忆中一直惦念着的女人。
      某日,申珠妍忽然得知从国外归来的朱浣将住进她的家中,尽管提出了强烈的抗议,但现实依旧无法改变。与此同时,申珠妍和男友李正昊刚刚分手没多久,她误以为李正昊移情别恋,因此和曾经的好友吴世玲(王智媛 饰)之间爆发了冲突。随着了解的深入,朱浣看到了申珠妍坚强外壳下的脆弱内心,决心好好的保护她,可就在此时,朱浣发现申珠妍喜欢的其实是姜太润(南宫珉 饰),善良的朱浣决定隐藏自己的感情,帮助他们两人走到一起。

    ◎获奖情况

      第1届豆瓣电影年度榜单  (2014)
      评分最高的韩剧(提名)

    1. General
    2. Unique ID                      : 177152193739837270512909462217839524689 (0x8546457EA5DF3A5E9306576C80B6BB51)
    3. 需要浪漫\I Need Romance S03 1080p NF WEB-DL DDP2.0 x264-ARiN\I Need Romance S03E11 1080p NF WEB-DL DDP2.0 x264-ARiN.mkv
    4. Format                         : Matroska
    5. Format version                 : Version 4
    6. File size                      : 2.10 GiB
    7. Duration                       : 47 min 35 s
    8. Overall bit rate mode          : Variable
    9. Overall bit rate               : 6 310 kb/s
    10. Encoded date                   : UTC 2017-08-31 19:13:52
    11. Writing application            : mkvmerge v13.0.0 ('The Juggler') 64bit
    12. Writing library                : libebml v1.3.4 + libmatroska v1.4.5

    13. Video
    14. ID                             : 1
    15. Format                         : AVC
    16. Format/Info                    : Advanced Video Codec
    17. Format profile                 : [email protected]
    18. Format settings                : CABAC / 3 Ref Frames
    19. Format settings, CABAC         : Yes
    20. Format settings, Reference fra : 3 frames
    21. Codec ID                       : V_MPEG4/ISO/AVC
    22. Duration                       : 47 min 34 s
    23. Bit rate mode                  : Variable
    24. Bit rate                       : 6 190 kb/s
    25. Maximum bit rate               : 9 285 kb/s
    26. Width                          : 1 920 pixels
    27. Height                         : 1 080 pixels
    28. Display aspect ratio           : 16:9
    29. Frame rate mode                : Constant
    30. Frame rate                     : 23.976 (24000/1001) FPS
    31. Color space                    : YUV
    32. Chroma subsampling             : 4:2:0
    33. Bit depth                      : 8 bits
    34. Scan type                      : Progressive
    35. Bits/(Pixel*Frame)             : 0.125
    36. Stream size                    : 2.05 GiB (98%)
    37. Writing library                : x264 core 118
    38. Encoding settings              : cabac=1 / ref=3 / deblock=1:0:0 / analyse=0x1:0x111 / me=umh / subme=10 / psy=1 / psy_rd=1.00:0.00 / mixed_ref=1 / me_range=24 / chroma_me=1 / trellis=2 / 8x8dct=0 / cqm=0 / deadzone=21,11 / fast_pskip=1 / chroma_qp_offset=-2 / threads=8 / sliced_threads=0 / nr=0 / decimate=1 / interlaced=0 / bluray_compat=0 / constrained_intra=0 / bframes=2 / b_pyramid=0 / b_adapt=2 / b_bias=0 / direct=3 / weightb=1 / open_gop=0 / weightp=2 / keyint=48 / keyint_min=25 / scenecut=0 / intra_refresh=0 / rc_lookahead=0 / rc=2pass / mbtree=1 / bitrate=6190 / ratetol=1.0 / qcomp=0.50 / qpmin=6 / qpmax=51 / qpstep=4 / cplxblur=20.0 / qblur=0.5 / vbv_maxrate=9285 / vbv_bufsize=12380 / nal_hrd=vbr / ip_ratio=1.40 / aq=1:1.00
    39. Default                        : Yes
    40. Forced                         : No

    41. Audio
    42. ID                             : 2
    43. Format                         : E-AC-3
    44. Format/Info                    : Enhanced AC-3
    45. Commercial name                : Dolby Digital Plus
    46. Codec ID                       : A_EAC3
    47. Duration                       : 47 min 35 s
    48. Bit rate mode                  : Constant
    49. Bit rate                       : 128 kb/s
    50. Channel(s)                     : 2 channels
    51. Channel layout                 : L R
    52. Sampling rate                  : 48.0 kHz
    53. Frame rate                     : 31.250 FPS (1536 SPF)
    54. Compression mode               : Lossy
    55. Stream size                    : 43.6 MiB (2%)
    56. Language                       : Korean
    57. Service kind                   : Complete Main
    58. Default                        : Yes
    59. Forced                         : No

    60. Text #1
    61. ID                             : 3
    62. Format                         : UTF-8
    63. Codec ID                       : S_TEXT/UTF8
    64. Codec ID/Info                  : UTF-8 Plain Text
    65. Duration                       : 47 min 29 s
    66. Bit rate                       : 62 b/s
    67. Count of elements              : 706
    68. Stream size                    : 21.8 KiB (0%)
    69. Language                       : English
    70. Default                        : No
    71. Forced                         : No

    72. Text #2
    73. ID                             : 4
    74. Format                         : UTF-8
    75. Codec ID                       : S_TEXT/UTF8
    76. Codec ID/Info                  : UTF-8 Plain Text
    77. Duration                       : 47 min 29 s
    78. Bit rate                       : 61 b/s
    79. Count of elements              : 705
    80. Stream size                    : 21.4 KiB (0%)
    81. Language                       : Spanish
    82. Default                        : No
    83. Forced                         : No

    84. Text #3
    85. ID                             : 5
    86. Format                         : UTF-8
    87. Codec ID                       : S_TEXT/UTF8
    88. Codec ID/Info                  : UTF-8 Plain Text
    89. Duration                       : 47 min 27 s
    90. Bit rate                       : 92 b/s
    91. Count of elements              : 864
    92. Stream size                    : 32.0 KiB (0%)
    93. Language                       : Korean
    94. Default                        : No
    95. Forced                         : No

    96. Text #4
    97. ID                             : 6
    98. Format                         : UTF-8
    99. Codec ID                       : S_TEXT/UTF8
    100. Codec ID/Info                  : UTF-8 Plain Text
    101. Duration                       : 47 min 29 s
    102. Bit rate                       : 61 b/s
    103. Count of elements              : 706
    104. Stream size                    : 21.3 KiB (0%)
    105. Title                          : Simplified
    106. Language                       : Chinese
    107. Default                        : No
    108. Forced                         : No

    109. Text #5
    110. ID                             : 7
    111. Format                         : UTF-8
    112. Codec ID                       : S_TEXT/UTF8
    113. Codec ID/Info                  : UTF-8 Plain Text
    114. Duration                       : 47 min 29 s
    115. Bit rate                       : 62 b/s
    116. Count of elements              : 705
    117. Stream size                    : 21.6 KiB (0%)
    118. Title                          : Traditional
    119. Language                       : Chinese
    120. Default                        : No
    121. Forced                         : No
    复制代码














    购买主题 已有 2 人购买  本主题需向作者支付 500 大洋 才能浏览
    郑重声明:
    本人提供的所有影视作品均是在网上搜集,任何涉及商业盈利目的均不得使用,否则产生的一切后果将由您自己承担!
    本人不对本人所发布的任何内容负任何法律责任!该下载内容仅做宽带测试使用,请在下载后24小时内删除。请购买正版!
    本人列出的文件没有保存在本站的服务器上,本人仅负责连接,本人对被传播文件的内容一无所知。
    如侵犯视频原作者或发行商版权,请联系本人删除!
    回复

    使用道具 举报

  • TA的每日心情
    开心
    昨天 00:32
  • 签到天数: 433 天

    [LV.9]以坛为家II

    0

    主题

    2258

    帖子

    378

    积分

    超级影迷

    Rank: 6Rank: 6

    积分
    378
    发表于 2021-10-30 21:52:16 | 显示全部楼层
    多谢楼主发片,十分感激
    回复

    使用道具 举报

  • TA的每日心情
    无聊
    2021-11-7 10:13
  • 签到天数: 199 天

    [LV.7]常住居民III

    6

    主题

    2075

    帖子

    652

    积分

    专业影迷

    Rank: 8Rank: 8

    积分
    652

    小土豪勋章

    发表于 2021-10-30 23:47:50 | 显示全部楼层
    感谢分享,收藏了!
    回复

    使用道具 举报

  • TA的每日心情
    擦汗
    10 小时前
  • 签到天数: 127 天

    [LV.7]常住居民III

    5

    主题

    1664

    帖子

    249

    积分

    高级影迷

    Rank: 4

    积分
    249

    小土豪勋章

    发表于 2021-10-31 00:11:20 | 显示全部楼层
    感谢分享,收藏了!
    回复

    使用道具 举报

  • TA的每日心情

    17 小时前
  • 签到天数: 569 天

    [LV.9]以坛为家II

    4

    主题

    4036

    帖子

    243

    积分

    高级影迷

    Rank: 4

    积分
    243
    发表于 2021-10-31 00:19:13 | 显示全部楼层

    谢谢分享谢谢分享谢谢分享
    回复

    使用道具 举报

  • TA的每日心情
    无聊
    16 小时前
  • 签到天数: 405 天

    [LV.9]以坛为家II

    1

    主题

    3289

    帖子

    239

    积分

    高级影迷

    Rank: 4

    积分
    239
    发表于 2021-10-31 00:28:45 | 显示全部楼层
    多谢大佬分享
    回复

    使用道具 举报

  • TA的每日心情
    开心
    昨天 21:49
  • 签到天数: 719 天

    [LV.9]以坛为家II

    100

    主题

    2730

    帖子

    316

    积分

    超级影迷

    Rank: 6Rank: 6

    积分
    316
    发表于 2021-10-31 01:22:33 | 显示全部楼层
    喜欢这种轻松剧
    回复

    使用道具 举报

  • TA的每日心情
    开心
    昨天 19:29
  • 签到天数: 242 天

    [LV.8]以坛为家I

    7

    主题

    1897

    帖子

    303

    积分

    超级影迷

    Rank: 6Rank: 6

    积分
    303
    发表于 2021-10-31 05:11:43 | 显示全部楼层
    支持高清,感谢分享
    回复

    使用道具 举报

  • TA的每日心情
    开心
    3 小时前
  • 签到天数: 289 天

    [LV.8]以坛为家I

    4

    主题

    2587

    帖子

    811

    积分

    资深影迷

    Rank: 10Rank: 10Rank: 10

    积分
    811
    发表于 2021-10-31 06:54:52 来自手机 | 显示全部楼层
    感谢分享哈
    回复

    使用道具 举报

  • TA的每日心情
    开心
    9 小时前
  • 签到天数: 206 天

    [LV.7]常住居民III

    1

    主题

    1294

    帖子

    110

    积分

    中级影迷

    Rank: 3Rank: 3

    积分
    110
    发表于 2021-10-31 07:30:24 | 显示全部楼层
    支持一下!
    回复

    使用道具 举报

    您需要登录后才可以回帖 登录 | 立即注册

    本版积分规则

    QQ|Archiver|手机版|小黑屋|影迷乐园

    GMT+8, 2022-1-20 18:49 , Processed in 0.099019 second(s), 32 queries .

    Powered by Discuz! X3.4

    Copyright © 2001-2020, Tencent Cloud.

    快速回复 返回顶部 返回列表