请选择 进入手机版 | 继续访问电脑版

YMLY-影迷乐园-特效字幕 蓝光原盘 1080P 高清动漫电影电视剧

 找回密码
 立即注册
搜索
查看: 1485|回复: 53

[日本] [115+百度][2005-2015][1080P][虫师+虫师续章+特别篇:蚀日之翳.荆棘之路.铃之滴][日语.外挂简繁字幕][MKV][80.07GB]

  [复制链接]
  • TA的每日心情
    奋斗
    2020-2-21 00:36
  • 签到天数: 656 天

    [LV.9]以坛为家II

    1万

    主题

    1万

    帖子

    22万

    积分

    超级版主

    与齐同行,是最初的梦想,也是一辈子的执着~

    Rank: 16Rank: 16Rank: 16Rank: 16

    积分
    221100

    内测勋章最佳新人十二生肖之猴VIP包月勋章影迷男神小土豪勋章土豪勋章富甲一方精华勋章金话筒主题达人灌水之王

    发表于 2021-10-18 19:41:14 | 显示全部楼层 |阅读模式
    第一季为外挂简中字幕,续章+3SP为外挂简繁字幕,字幕样式详情看截图!



    ◎译  名 虫师/mushishi/むしし
    ◎片  名 蟲師
    ◎年  代 2005
    ◎产  地 日本
    ◎类  别 剧情 / 动画 / 悬疑 / 惊悚 / 恐怖 / 奇幻
    ◎语  言 日语
    ◎上映日期 2005-10-22(日本)
    ◎IMDb评分  8.5/10 from 12734 users
    ◎IMDb链接  https://www.imdb.com/title/tt0807832/
    ◎豆瓣评分 9.4/10 from 84700 users
    ◎豆瓣链接 https://movie.douban.com/subject/1800597/
    ◎集  数 26
    ◎片  长 24分钟
    ◎导  演 长滨博史 Hiroshi Nagahama / 今泉贤一 Kenichi Imaizumi / 长井龙雪 Tatsuyuki Nagai / 长峰达也 Tatsuya Nagamine / 山崎理 Osamu Yamasaki / 五十岚卓哉 Takuya Igarashi / 宫下新平 Miyashita Shinpei / 成田岁法 Narita Toshinori / 五月女浩一朗 Soutome Kouichirou / 真野玲 Mano Akira / 井之川慎太郎 Inokawa Shintarou / 宫田亮 Miyata Ryou
    ◎编  剧 漆原友纪 Yuki Urushibara / 长滨博史 Hiroshi Nagahama / 伊丹秋 Aki Itami / 山田由香 Yuka Yamada
    ◎主  演 中野裕斗 Yuto Nakano
           土井美加 Mika Doi
           泽城美雪 Miyuki Sawashiro
           上田祐司 Yûji Ueda
           名塚佳织 Kaori Nazuka
           小林爱 Ai Kobayashi
           保村真 Makoto Yasumura
           坂本真绫 Maaya Sakamoto
           川田绅司 Shinji Kawada
           井关佳子 Iseki Yoshiko
           竹本英史 Eiji Takemoto
           松山鹰志 Takashi Matsuyama
           野岛昭生 Akio Nojima
           内藤玲 Ryô Naitô
           伊濑茉莉也 Mariya Ise
           前田刚 Takeshi Maeda
           本城雄太郎 Honjou Yuutarou
           岩男润子 Junko Iwao
           大谷美贵 Miki Ootani
           清水香里 Kaori Shimizu
           小山刚志 Tsuyoshi Koyama
           川上伦子 Tomoko Kawakami
           山路和弘 Kazuhiro Yamaji
           下崎纮史 Shimozaki Hiroshi
           岩崎征实 Iwasaki Masami
           川原庆久 Yoshihisa Kawahara
           阴山泰 Kageyama Tai
           伊藤实华 Mika Itô
           丰后敦子 Bungo Atsuko
           明坂聪美 Satomi Akesaka

    ◎标  签 动画 | 日本 | 虫师 | 日本动画 | 动漫 | 蟲師 | 日本动漫 | 感动

    ◎简  介

      “虫”既不是动物,也不是微生物,而是一种自然界中无处不在的力量,拥有独特的生命形态,偶尔和人类生命产生交汇,便生出一些奇妙的故事。但人们即使得知了“虫”的存在,大部分时候也不知如何应对,这便需要“虫师”出马。
      银古就是一位虫师,他一头银发,年纪尚轻,但已经半生游历,经过一个个山野、村庄,为人们解决“虫”的问题,通过和被“虫”困扰的人们接近,他也接近了许多故事。银古的游历像风一样,再惊心动魄的“虫”似乎都融化在水墨样的山峦叠嶂间,芸芸众生也是过眼云烟,淡淡的故事里没有哀伤只有静穆。

    1. General
    2. Unique ID                      : 250770982736139813945490422043083693504 (0xBCA8BC071C3CDBFCB57D5D37C94A5DC0)
    3. Format                         : Matroska
    4. Format version                 : Version 4
    5. File size                      : 1.80 GiB
    6. Duration                       : 23 min 39 s
    7. Overall bit rate mode          : Variable
    8. Overall bit rate               : 10.9 Mb/s
    9. Encoded date                   : UTC 2019-10-17 16:48:21
    10. Writing application            : mkvmerge v9.4.2 ('So High') 64bit
    11. Writing library                : libebml v1.3.4 + libmatroska v1.4.5

    12. Video
    13. ID                             : 1
    14. Format                         : AVC
    15. Format/Info                    : Advanced Video Codec
    16. Format profile                 : High 4:4:4 [email protected]
    17. Format settings                : CABAC / 16 Ref Frames
    18. Format settings, CABAC         : Yes
    19. Format settings, Reference fra : 16 frames
    20. Codec ID                       : V_MPEG4/ISO/AVC
    21. Duration                       : 23 min 39 s
    22. Bit rate                       : 10.3 Mb/s
    23. Width                          : 1 920 pixels
    24. Height                         : 1 080 pixels
    25. Display aspect ratio           : 16:9
    26. Frame rate mode                : Constant
    27. Frame rate                     : 23.976 (24000/1001) FPS
    28. Color space                    : YUV
    29. Chroma subsampling             : 4:4:4
    30. Bit depth                      : 10 bits
    31. Scan type                      : Progressive
    32. Bits/(Pixel*Frame)             : 0.207
    33. Stream size                    : 1.70 GiB (95%)
    34. Writing library                : x264 core 152 r2851 ba24899
    35. Encoding settings              : cabac=1 / ref=16 / deblock=1:-2:-2 / analyse=0x1:0x131 / me=umh / subme=11 / psy=1 / psy_rd=1.00:0.00 / mixed_ref=1 / me_range=30 / chroma_me=1 / trellis=2 / 8x8dct=0 / cqm=0 / deadzone=21,11 / fast_pskip=0 / chroma_qp_offset=4 / threads=12 / lookahead_threads=3 / sliced_threads=0 / nr=0 / decimate=1 / interlaced=0 / bluray_compat=0 / constrained_intra=0 / bframes=16 / b_pyramid=2 / b_adapt=2 / b_bias=0 / direct=3 / weightb=1 / open_gop=1 / weightp=2 / keyint=250 / keyint_min=23 / scenecut=40 / intra_refresh=0 / rc_lookahead=60 / rc=crf / mbtree=1 / crf=15.0 / qcomp=0.60 / qpmin=0 / qpmax=81 / qpstep=4 / ip_ratio=1.40 / aq=3:1.00
    36. Language                       : English
    37. Default                        : Yes
    38. Forced                         : No
    39. Color range                    : Limited
    40. Color primaries                : BT.709
    41. Transfer characteristics       : BT.709
    42. Matrix coefficients            : BT.709

    43. Audio
    44. ID                             : 2
    45. Format                         : FLAC
    46. Format/Info                    : Free Lossless Audio Codec
    47. Codec ID                       : A_FLAC
    48. Duration                       : 23 min 39 s
    49. Bit rate mode                  : Variable
    50. Bit rate                       : 565 kb/s
    51. Channel(s)                     : 2 channels
    52. Channel layout                 : L R
    53. Sampling rate                  : 48.0 kHz
    54. Frame rate                     : 11.719 FPS (4096 SPF)
    55. Bit depth                      : 16 bits
    56. Compression mode               : Lossless
    57. Stream size                    : 95.5 MiB (5%)
    58. Writing library                : libFLAC 1.2.1 (UTC 2007-09-17)
    59. Default                        : Yes
    60. Forced                         : No

    61. Menu
    62. 00:00:00.000                   : en:Opening
    63. 00:01:33.193                   : en:Episode
    64. 00:22:32.618                   : en:Ending
    65. 00:23:33.012                   : en:Next
    复制代码













    ◎译  名 虫师 续章/Mushishi -Next Passage-/Mushishi Zoku Shou/Mushishi: Zoku-Sho/虫师 第二季
    ◎片  名 蟲師 続章
    ◎年  代 2014
    ◎产  地 日本
    ◎类  别 剧情 / 动画 / 悬疑 / 奇幻
    ◎语  言 日语
    ◎上映日期 2014-04-04(日本)
    ◎IMDb评分  8.9/10 from 2554 users
    ◎IMDb链接  https://www.imdb.com/title/tt3443522/
    ◎豆瓣评分 9.6/10 from 24734 users
    ◎豆瓣链接 https://movie.douban.com/subject/25806507/
    ◎集  数 20
    ◎片  长 24分钟
    ◎导  演 长滨博史 Hiroshi Nagahama / 五月女浩一朗 Soutome Kouichirou / 下司泰弘 Geshi Yasuhiro / 木村延景 Nobukage Kimura / 木村泰大 Kimura Yasuhiro / 布施康之 Fuse Yasuyuki / 大久保富彦 Ookubo Tomihiko
    ◎编  剧 长滨博史 Hiroshi Nagahama / 漆原友纪 Yuki Urushibara
    ◎主  演 中野裕斗 Yuto Nakano
           土井美加 Mika Doi
           泽城美雪 Miyuki Sawashiro
           上田祐司 Yûji Ueda
           内山昂辉 Koki Uchiyama
           石川由依 Yui Ishikawa
           岸尾大辅 Daisuke Kishio
           岛本须美 Sumi Shimamoto
           栗本有规 Yuki Kurimoto
           小林亲弘 Chikahiro Kobayashi
           屋良有作 Yûsaku Yara
           宫本充 Mitsuru Miyamoto
           落合弘治 Ochiai Kouji
           滨野大辉 Daiki Hamano
           矢部雅史 Masashi Yabe
           山本兼平 Kanehira Yamamoto
           井关佳子 Iseki Yoshiko
           赤泽凉太 Akazawa Ryōta
           藤森多哉 Fujimori Taya
           下崎纮史 Shimozaki Hiroshi
           日笠阳子 Yoko Hikasa

    ◎标  签 虫师 | 动画 | 日本 | 日本动画 | 动漫 | 治愈 | 2014 | 奇幻

    ◎简  介

      在世界的每一个角落里,存在着这样一种生物:它们下等且奇怪,完全不同于任何动植物,自古以来为人类所敬畏,不知何时开始,被称为“虫”。它们有自己的生命形态以及生存方式,而这些方式或许会影响到人类的世界。“虫师”这个职业便应运而生,他们对虫进行研究记录,并接受人们的委托,解决由虫引起的奇异事件。
      故事主人公银古(中野裕斗 配音)就是这样一名四处云游的虫师,他一头银发,仅用一只眼睛视物;常常叼着一根烟,背着一个大行囊,翻山越岭,追寻虫的足迹。
      《虫师》自第一季开播后深受观众喜爱,沉寂数年后TV动画系列再度启动,制作人员由原班人马组成。此次的《虫师·续章》将会动画化原作的全部剧情。

    1. General
    2. Unique ID                      : 203758873619517596191923019086381763163 (0x994A8817D84B8437B5040DF789CCCA5B)
    3. Format                         : Matroska
    4. Format version                 : Version 4
    5. File size                      : 1.63 GiB
    6. Duration                       : 23 min 46 s
    7. Overall bit rate mode          : Variable
    8. Overall bit rate               : 9 838 kb/s
    9. Encoded date                   : UTC 2015-08-30 13:04:47
    10. Writing application            : mkvmerge v8.3.0 ('Over the Horizon') 32bit
    11. Writing library                : libebml v1.3.1 + libmatroska v1.4.2

    12. Video
    13. ID                             : 1
    14. Format                         : AVC
    15. Format/Info                    : Advanced Video Codec
    16. Format profile                 : High [email protected]
    17. Format settings                : CABAC / 6 Ref Frames
    18. Format settings, CABAC         : Yes
    19. Format settings, Reference fra : 6 frames
    20. Codec ID                       : V_MPEG4/ISO/AVC
    21. Duration                       : 23 min 46 s
    22. Bit rate                       : 6 968 kb/s
    23. Width                          : 1 920 pixels
    24. Height                         : 1 080 pixels
    25. Display aspect ratio           : 16:9
    26. Frame rate mode                : Constant
    27. Frame rate                     : 23.976 (24000/1001) FPS
    28. Color space                    : YUV
    29. Chroma subsampling             : 4:2:0
    30. Bit depth                      : 10 bits
    31. Scan type                      : Progressive
    32. Bits/(Pixel*Frame)             : 0.140
    33. Stream size                    : 1.16 GiB (71%)
    34. Writing library                : x264 core 142 r2431+42 c69a006 tMod [[email protected] X86_64]
    35. Encoding settings              : cabac=1 / ref=6 / deblock=1:-1:-1 / analyse=0x3:0x133 / me=umh / subme=10 / psy=1 / fade_compensate=0.00 / psy_rd=0.75:0.15 / mixed_ref=1 / me_range=24 / chroma_me=1 / trellis=2 / 8x8dct=1 / cqm=0 / deadzone=21,11 / fast_pskip=0 / chroma_qp_offset=-3 / threads=12 / lookahead_threads=2 / sliced_threads=0 / nr=0 / decimate=0 / interlaced=0 / bluray_compat=0 / constrained_intra=0 / fgo=0 / bframes=8 / b_pyramid=2 / b_adapt=2 / b_bias=0 / direct=3 / weightb=1 / open_gop=0 / weightp=2 / keyint=500 / keyint_min=1 / scenecut=40 / intra_refresh=0 / rc_lookahead=60 / rc=crf / mbtree=1 / crf=15.5000 / qcomp=0.75 / qpmin=0:0:0 / qpmax=81:81:81 / qpstep=4 / ip_ratio=1.40 / aq=3:0.90 / aq-sensitivity=10.00 / aq-factor=1.00:1.00:1.00 / aq2=0 / aq3=0
    36. Default                        : Yes
    37. Forced                         : No

    38. Audio #1
    39. ID                             : 2
    40. Format                         : FLAC
    41. Format/Info                    : Free Lossless Audio Codec
    42. Codec ID                       : A_FLAC
    43. Duration                       : 23 min 45 s
    44. Bit rate mode                  : Variable
    45. Bit rate                       : 1 368 kb/s
    46. Channel(s)                     : 2 channels
    47. Channel layout                 : L R
    48. Sampling rate                  : 48.0 kHz
    49. Frame rate                     : 41.667 FPS (1152 SPF)
    50. Bit depth                      : 24 bits
    51. Compression mode               : Lossless
    52. Stream size                    : 233 MiB (14%)
    53. Writing library                : libFLAC 1.3.1 (UTC 2014-11-25)
    54. Language                       : Japanese
    55. Default                        : Yes
    56. Forced                         : No

    57. Audio #2
    58. ID                             : 3
    59. Format                         : FLAC
    60. Format/Info                    : Free Lossless Audio Codec
    61. Codec ID                       : A_FLAC
    62. Duration                       : 23 min 45 s
    63. Bit rate mode                  : Variable
    64. Bit rate                       : 1 498 kb/s
    65. Channel(s)                     : 2 channels
    66. Channel layout                 : L R
    67. Sampling rate                  : 48.0 kHz
    68. Frame rate                     : 41.667 FPS (1152 SPF)
    69. Bit depth                      : 24 bits
    70. Compression mode               : Lossless
    71. Stream size                    : 255 MiB (15%)
    72. Title                          : Commentary
    73. Writing library                : libFLAC 1.3.1 (UTC 2014-11-25)
    74. Language                       : Japanese
    75. Default                        : No
    76. Forced                         : No

    77. Menu
    78. 00:00:00.000                   : en:Chapter 01
    79. 00:01:35.095                   : en:Chapter 02
    80. 00:02:04.124                   : en:Chapter 03
    81. 00:12:28.999                   : en:Chapter 04
    82. 00:22:09.996                   : en:Chapter 05
    83. 00:23:40.002                   : en:Chapter 06
    复制代码












    购买主题 已有 12 人购买  本主题需向作者支付 200 大洋 才能浏览
    郑重声明:
    本人提供的所有影视作品均是在网上搜集,任何涉及商业盈利目的均不得使用,否则产生的一切后果将由您自己承担!
    本人不对本人所发布的任何内容负任何法律责任!该下载内容仅做宽带测试使用,请在下载后24小时内删除。请购买正版!
    本人列出的文件没有保存在本站的服务器上,本人仅负责连接,本人对被传播文件的内容一无所知。
    如侵犯视频原作者或发行商版权,请联系本人删除!
    回复

    使用道具 举报

  • TA的每日心情
    开心
    2020-11-21 00:55
  • 签到天数: 8 天

    [LV.3]偶尔看看II

    1

    主题

    533

    帖子

    221

    积分

    高级影迷

    Rank: 4

    积分
    221
    发表于 2021-10-18 20:08:58 | 显示全部楼层
    感谢分享!
    回复

    使用道具 举报

  • TA的每日心情
    慵懒
    6 小时前
  • 签到天数: 77 天

    [LV.6]常住居民II

    4

    主题

    259

    帖子

    209

    积分

    高级影迷

    Rank: 4

    积分
    209
    发表于 2021-10-18 20:37:04 | 显示全部楼层
    找了很久,太棒了
    回复

    使用道具 举报

  • TA的每日心情
    无聊
    2021-12-28 22:16
  • 签到天数: 145 天

    [LV.7]常住居民III

    0

    主题

    1545

    帖子

    102

    积分

    中级影迷

    Rank: 3Rank: 3

    积分
    102
    发表于 2021-10-18 21:59:26 | 显示全部楼层
    感谢楼主分享
    回复

    使用道具 举报

  • TA的每日心情
    奋斗
    18 小时前
  • 签到天数: 422 天

    [LV.9]以坛为家II

    31

    主题

    3781

    帖子

    1556

    积分

    稀有影迷

    Rank: 12Rank: 12Rank: 12

    积分
    1556
    发表于 2021-10-18 23:16:49 | 显示全部楼层

    感谢楼主的分享
    回复

    使用道具 举报

  • TA的每日心情
    慵懒
    17 小时前
  • 签到天数: 160 天

    [LV.7]常住居民III

    14

    主题

    855

    帖子

    91

    积分

    中级影迷

    Rank: 3Rank: 3

    积分
    91
    发表于 2021-10-18 23:23:53 | 显示全部楼层
    为什么这么大。。
    回复

    使用道具 举报

  • TA的每日心情
    开心
    昨天 00:32
  • 签到天数: 433 天

    [LV.9]以坛为家II

    0

    主题

    2258

    帖子

    378

    积分

    超级影迷

    Rank: 6Rank: 6

    积分
    378
    发表于 2021-10-18 23:31:15 | 显示全部楼层
    这个动画片很棒,楼主感谢你
    回复

    使用道具 举报

  • TA的每日心情

    18 小时前
  • 签到天数: 569 天

    [LV.9]以坛为家II

    4

    主题

    4036

    帖子

    243

    积分

    高级影迷

    Rank: 4

    积分
    243
    发表于 2021-10-19 00:19:10 | 显示全部楼层
    多谢楼主分享这么好的
    回复

    使用道具 举报

  • TA的每日心情
    开心
    昨天 21:49
  • 签到天数: 719 天

    [LV.9]以坛为家II

    100

    主题

    2730

    帖子

    316

    积分

    超级影迷

    Rank: 6Rank: 6

    积分
    316
    发表于 2021-10-19 01:58:45 | 显示全部楼层
    唯美至极的动漫,好看
    回复

    使用道具 举报

  • TA的每日心情
    开心
    8 小时前
  • 签到天数: 518 天

    [LV.9]以坛为家II

    2

    主题

    1034

    帖子

    62

    积分

    初级影迷

    Rank: 2

    积分
    62
    发表于 2021-10-19 07:19:14 | 显示全部楼层
    感谢分享!
    回复

    使用道具 举报

    您需要登录后才可以回帖 登录 | 立即注册

    本版积分规则

    QQ|Archiver|手机版|小黑屋|影迷乐园

    GMT+8, 2022-1-20 18:54 , Processed in 0.105310 second(s), 28 queries .

    Powered by Discuz! X3.4

    Copyright © 2001-2020, Tencent Cloud.

    快速回复 返回顶部 返回列表