请选择 进入手机版 | 继续访问电脑版

YMLY-影迷乐园-特效字幕 蓝光原盘 1080P 高清动漫电影电视剧

 找回密码
 立即注册
搜索
查看: 1200|回复: 49

[日本] [115+百度][2002][1080P][十二国记][台配.日语.台配简繁字幕][45集全][MKV][56.45GB][Juuni.Kokuki.2002.BDRip.1080p.x264.2Audio.4Subtitles-HDSHOT]

[复制链接]
  • TA的每日心情
    奋斗
    2020-2-21 00:36
  • 签到天数: 656 天

    [LV.9]以坛为家II

    1万

    主题

    1万

    帖子

    22万

    积分

    超级版主

    与齐同行,是最初的梦想,也是一辈子的执着~

    Rank: 16Rank: 16Rank: 16Rank: 16

    积分
    221086

    内测勋章最佳新人十二生肖之猴VIP包月勋章影迷男神小土豪勋章土豪勋章富甲一方精华勋章金话筒主题达人灌水之王

    发表于 2021-10-9 08:54:06 | 显示全部楼层 |阅读模式
    下载说明:

    百度云网盘分享极其不稳定,如有链接失效,请第一时间站内短消息通知我,上线后会第一时间补发!



    内封台配简繁字幕和日语简繁字幕~详情请看截图



    ◎译  名 十二国记/12 kokuki/The Twelve Kingdoms/十二国战记
    ◎片  名 十二国記
    ◎年  代 2002
    ◎产  地 日本
    ◎类  别 剧情 / 动画 / 奇幻 / 冒险
    ◎语  言 日语
    ◎上映日期 2002-04-09(日本)
    ◎豆瓣评分 9.2/10 from 35922 users
    ◎豆瓣链接 https://movie.douban.com/subject/1394510/
    ◎集  数 45
    ◎片  长 25分钟
    ◎导  演 小林常夫 Tsuneo Kobayashi / 中村哲治 Nakamura Tetsuharu / 佐藤真二 Satou Shinji / 吉川浩司 Yoshikawa Kouji / 小原正和 Masakazu Kohara / 杉山庆一 Keiichi Sugiyama / 今千秋 Chiaki Kon / 宫崎渚 Miyazaki Nagisa / 上田茂 Ueda Shigeru / 土屋浩幸 Tsuchiya Hiroyuki / 中村贤太郎 Nakamura Kentarou / 熨斗谷充孝 Noshitani Mitsutaka
    ◎编  剧 会川升 Shô Aikawa / 小野不由美 Fuyumi Ono
    ◎主  演 久川绫 Aya Hisakawa
           子安武人 Takehito Koyasu
           铃村健一 Kenichi Suzumura
           相泽正辉 Masaki Aizawa
           山口胜平 Kappei Yamaguchi
           钉宫理惠 Rie Kugimiya
           杉田智和 Tomokazu Sugita
           能登麻美子 Mamiko Noto
           高山南 Minami Takayama
           桑岛法子 Houko Kuwashima
           阪口大助 Daisuke Sakaguchi
           野岛健儿 Kenji Nojima
           山崎和佳奈 Wakana Yamazaki
           川上伦子 Tomoko Kawakami
           丰口惠美 Megumi Toyoguchi
           堀川亮 Ryô Horikawa
           甲斐田裕子 Yûko Kaida
           金田朋子 Tomoko Kaneda
           藤田淑子 Toshiko Fujita
           上田祐司 Yûji Ueda
           胜生真沙子 Masako Katsuki
           冬马由美 Yumi Tôma
           福岛润 Jun Fukushima
           泷泽久美子 Kumiko Takizawa
           野田顺子 Junko Noda
           川原庆久 Yoshihisa Kawahara
           铃木玲子 Reiko Suzuki
           土师孝也 Takaya Hashi
           若林直美 Naomi Wakabayashi
           中田和宏 Kazuhiro Nakata
           津田匠子 Shouko Tsuda
           京田尚子 Hisako Kyôda
           川崎惠理子 Kawasaki Eriko
           齐藤次郎 Saitou Jirou
           冈野浩介 Kôsuke Okano
           田中大文 Tanaka Hirofumi
           清水敏孝 Toshitaka Shimizu
           大泷进矢 Shinya Ôtaki
           石野龙三 Ryūzō Ishino
           伊藤和晃 Itou Kazuaki
           大仓正章 Ookura Masaaki
           松下美由纪 Matsushita Miyuki
           佐藤蓝 Ai Satou
           渡边武 Takeshi Watanabe
           佐佐木优子 Yûko Sasaki
           石津彩 Aya Ishizu
           渡边明乃 Akeno Watanabe
           野岛裕史 Hirofumi Nojima
           真殿光昭 Mitsuaki Madono

    ◎标  签 动画 | 日本 | 动漫 | 奇幻 | 成长 | 经典 | 历史 | 励志

    ◎简  介

      有着血红色头发的高中女生阳子一心想做个好学生,得到周围人的认可。然而在她平静祥和的生活背后却是深沉的压抑与掩饰,一夜夜的梦魇给她带来无尽的烦恼与痛苦。一天,一头金发的男子来到她的面前,把她带入了另一个世界,一个充满未知却仿佛故里的地方。
      那里有十二个国家,由十二只麒麟选出十二名国王。麒麟生于失身木,他们顺从天意选出具有王气的人,然后以台辅的身份辅佐国王治理国家。当国王失道的时候,麒麟就会得失道之病最终死去。带走阳子的金发男子即是庆国的麒麟,他认定阳子是王,并誓死效忠。阳子的世界发生翻天覆地的变化,历经磨难和内心的挣扎,她最终站在登基塔上接受了天赦,成为景王!

    1. General
    2. Unique ID                      : 78658333433027600251702104779838072738 (0x3B2D0B41D7AC110F1C593ED8566627A2)
    3. Format                         : Matroska
    4. Format version                 : Version 4
    5. File size                      : 1.47 GiB
    6. Duration                       : 25 min 3 s
    7. Overall bit rate mode          : Variable
    8. Overall bit rate               : 8 383 kb/s
    9. Encoded date                   : UTC 2020-01-15 14:17:34
    10. Writing application            : mkvmerge v37.0.0 ('Leave It') 64-bit
    11. Writing library                : libebml v1.3.9 + libmatroska v1.5.2

    12. Video
    13. ID                             : 5
    14. Format                         : AVC
    15. Format/Info                    : Advanced Video Codec
    16. Format profile                 : [email protected]
    17. Format settings                : CABAC / 4 Ref Frames
    18. Format settings, CABAC         : Yes
    19. Format settings, Reference fra : 4 frames
    20. Codec ID                       : V_MPEG4/ISO/AVC
    21. Duration                       : 25 min 3 s
    22. Bit rate                       : 3 657 kb/s
    23. Width                          : 1 440 pixels
    24. Height                         : 1 080 pixels
    25. Display aspect ratio           : 4:3
    26. Frame rate mode                : Constant
    27. Frame rate                     : 23.976 (24000/1001) FPS
    28. Color space                    : YUV
    29. Chroma subsampling             : 4:2:0
    30. Bit depth                      : 8 bits
    31. Scan type                      : Progressive
    32. Bits/(Pixel*Frame)             : 0.098
    33. Stream size                    : 655 MiB (44%)
    34. Title                          : HDSHOT
    35. Writing library                : x264 core 152 r2851 ba24899
    36. Encoding settings              : cabac=1 / ref=5 / deblock=1:1:1 / analyse=0x3:0x113 / me=umh / subme=9 / psy=1 / psy_rd=1.00:0.00 / mixed_ref=1 / me_range=32 / chroma_me=1 / trellis=0 / 8x8dct=1 / cqm=0 / deadzone=21,11 / fast_pskip=0 / chroma_qp_offset=-2 / threads=24 / lookahead_threads=2 / sliced_threads=0 / nr=0 / decimate=1 / interlaced=0 / bluray_compat=0 / stitchable=1 / constrained_intra=0 / bframes=3 / b_pyramid=1 / b_adapt=2 / b_bias=0 / direct=1 / weightb=1 / open_gop=0 / weightp=1 / keyint=240 / keyint_min=23 / scenecut=40 / intra_refresh=0 / rc_lookahead=40 / rc=crf / mbtree=1 / crf=16.0 / qcomp=0.70 / qpmin=0 / qpmax=69 / qpstep=4 / ip_ratio=1.40 / aq=1:1.00
    37. Default                        : Yes
    38. Forced                         : No

    39. Audio #1
    40. ID                             : 6
    41. Format                         : AC-3
    42. Format/Info                    : Audio Coding 3
    43. Commercial name                : Dolby Digital
    44. Codec ID                       : A_AC3
    45. Duration                       : 25 min 3 s
    46. Bit rate mode                  : Constant
    47. Bit rate                       : 192 kb/s
    48. Channel(s)                     : 2 channels
    49. Channel layout                 : L R
    50. Sampling rate                  : 48.0 kHz
    51. Frame rate                     : 31.250 FPS (1536 SPF)
    52. Bit depth                      : 16 bits
    53. Compression mode               : Lossy
    54. Stream size                    : 34.4 MiB (2%)
    55. Title                          : 台配国语
    56. Language                       : Chinese
    57. Service kind                   : Complete Main
    58. Default                        : Yes
    59. Forced                         : No

    60. Audio #2
    61. ID                             : 7
    62. Format                         : FLAC
    63. Format/Info                    : Free Lossless Audio Codec
    64. Codec ID                       : A_FLAC
    65. Duration                       : 25 min 3 s
    66. Bit rate mode                  : Variable
    67. Bit rate                       : 3 680 kb/s
    68. Channel(s)                     : 6 channels
    69. Channel layout                 : L R C LFE Ls Rs
    70. Sampling rate                  : 48.0 kHz
    71. Frame rate                     : 41.667 FPS (1152 SPF)
    72. Bit depth                      : 24 bits
    73. Compression mode               : Lossless
    74. Stream size                    : 660 MiB (44%)
    75. Title                          : 日语(5.1声道)
    76. Writing library                : libFLAC 1.3.2 (UTC 2017-01-01)
    77. Language                       : Japanese
    78. Default                        : No
    79. Forced                         : No

    80. Audio #3
    81. ID                             : 8
    82. Format                         : FLAC
    83. Format/Info                    : Free Lossless Audio Codec
    84. Codec ID                       : A_FLAC
    85. Duration                       : 25 min 3 s
    86. Bit rate mode                  : Variable
    87. Bit rate                       : 802 kb/s
    88. Channel(s)                     : 2 channels
    89. Channel layout                 : L R
    90. Sampling rate                  : 48.0 kHz
    91. Frame rate                     : 41.667 FPS (1152 SPF)
    92. Bit depth                      : 16 bits
    93. Compression mode               : Lossless
    94. Stream size                    : 144 MiB (10%)
    95. Title                          : 日语(2.0声道)
    96. Writing library                : libFLAC 1.3.2 (UTC 2017-01-01)
    97. Language                       : Japanese
    98. Default                        : No
    99. Forced                         : No

    100. Text #1
    101. ID                             : 1
    102. Format                         : PGS
    103. Muxing mode                    : zlib
    104. Codec ID                       : S_HDMV/PGS
    105. Codec ID/Info                  : Picture based subtitle format used on BDs/HD-DVDs
    106. Duration                       : 23 min 21 s
    107. Bit rate                       : 52.1 kb/s
    108. Count of elements              : 882
    109. Stream size                    : 8.71 MiB (1%)
    110. Title                          : 台配繁体
    111. Language                       : Chinese
    112. Default                        : Yes
    113. Forced                         : No

    114. Text #2
    115. ID                             : 2
    116. Format                         : PGS
    117. Muxing mode                    : zlib
    118. Codec ID                       : S_HDMV/PGS
    119. Codec ID/Info                  : Picture based subtitle format used on BDs/HD-DVDs
    120. Duration                       : 23 min 21 s
    121. Bit rate                       : 51.4 kb/s
    122. Count of elements              : 882
    123. Stream size                    : 8.58 MiB (1%)
    124. Title                          : 台配简体
    125. Language                       : Chinese
    126. Default                        : No
    127. Forced                         : No

    128. Text #3
    129. ID                             : 3
    130. Format                         : UTF-8
    131. Codec ID                       : S_TEXT/UTF8
    132. Codec ID/Info                  : UTF-8 Plain Text
    133. Duration                       : 22 min 52 s
    134. Bit rate                       : 52 b/s
    135. Count of elements              : 358
    136. Stream size                    : 8.76 KiB (0%)
    137. Title                          : 日语简体
    138. Language                       : Chinese
    139. Default                        : No
    140. Forced                         : No

    141. Text #4
    142. ID                             : 4
    143. Format                         : UTF-8
    144. Codec ID                       : S_TEXT/UTF8
    145. Codec ID/Info                  : UTF-8 Plain Text
    146. Duration                       : 22 min 52 s
    147. Bit rate                       : 52 b/s
    148. Count of elements              : 358
    149. Stream size                    : 8.76 KiB (0%)
    150. Title                          : 日语繁体
    151. Language                       : Chinese
    152. Default                        : No
    153. Forced                         : No
    复制代码













    购买主题 已有 9 人购买  本主题需向作者支付 120 大洋 才能浏览
    郑重声明:
    本人提供的所有影视作品均是在网上搜集,任何涉及商业盈利目的均不得使用,否则产生的一切后果将由您自己承担!
    本人不对本人所发布的任何内容负任何法律责任!该下载内容仅做宽带测试使用,请在下载后24小时内删除。请购买正版!
    本人列出的文件没有保存在本站的服务器上,本人仅负责连接,本人对被传播文件的内容一无所知。
    如侵犯视频原作者或发行商版权,请联系本人删除!
    回复

    使用道具 举报

  • TA的每日心情
    开心
    昨天 19:29
  • 签到天数: 242 天

    [LV.8]以坛为家I

    7

    主题

    1897

    帖子

    303

    积分

    超级影迷

    Rank: 6Rank: 6

    积分
    303
    发表于 2021-10-9 10:13:31 | 显示全部楼层
    支持高清,感谢分享
    回复

    使用道具 举报

  • TA的每日心情
    开心
    昨天 19:05
  • 签到天数: 111 天

    [LV.6]常住居民II

    10

    主题

    1304

    帖子

    386

    积分

    超级影迷

    Rank: 6Rank: 6

    积分
    386
    发表于 2021-10-9 10:26:36 | 显示全部楼层
    感谢分享。
    回复

    使用道具 举报

  • TA的每日心情

    15 小时前
  • 签到天数: 226 天

    [LV.7]常住居民III

    5

    主题

    2486

    帖子

    420

    积分

    超级影迷

    Rank: 6Rank: 6

    积分
    420
    发表于 2021-10-9 10:28:03 | 显示全部楼层
    故事情节很不错
    回复

    使用道具 举报

  • TA的每日心情

    6 天前
  • 签到天数: 256 天

    [LV.8]以坛为家I

    0

    主题

    1667

    帖子

    554

    积分

    专业影迷

    Rank: 8Rank: 8

    积分
    554

    小土豪勋章

    发表于 2021-10-9 10:30:08 | 显示全部楼层
    这个太经典啦  巨好看
    回复

    使用道具 举报

  • TA的每日心情
    开心
    昨天 20:02
  • 签到天数: 243 天

    [LV.8]以坛为家I

    0

    主题

    2905

    帖子

    406

    积分

    超级影迷

    Rank: 6Rank: 6

    积分
    406
    发表于 2021-10-9 11:30:17 | 显示全部楼层
    不错不错不错不错
    回复

    使用道具 举报

  • TA的每日心情
    开心
    昨天 18:25
  • 签到天数: 619 天

    [LV.9]以坛为家II

    6

    主题

    4965

    帖子

    312

    积分

    超级影迷

    Rank: 6Rank: 6

    积分
    312
    发表于 2021-10-9 11:44:13 | 显示全部楼层
    感谢分享好资源
    回复

    使用道具 举报

  • TA的每日心情
    开心
    2020-11-21 00:55
  • 签到天数: 8 天

    [LV.3]偶尔看看II

    1

    主题

    533

    帖子

    221

    积分

    高级影迷

    Rank: 4

    积分
    221
    发表于 2021-10-9 11:52:48 | 显示全部楼层
    感谢分享!
    回复

    使用道具 举报

  • TA的每日心情
    开心
    昨天 15:51
  • 签到天数: 192 天

    [LV.7]常住居民III

    0

    主题

    1239

    帖子

    64

    积分

    初级影迷

    Rank: 2

    积分
    64
    发表于 2021-10-9 12:20:18 | 显示全部楼层
    支持高清,感谢分享
    回复

    使用道具 举报

  • TA的每日心情

    2021-12-31 08:36
  • 签到天数: 131 天

    [LV.7]常住居民III

    0

    主题

    1018

    帖子

    214

    积分

    高级影迷

    Rank: 4

    积分
    214

    小土豪勋章

    发表于 2021-10-9 13:30:58 | 显示全部楼层
    感谢分享优秀资源
    回复

    使用道具 举报

    您需要登录后才可以回帖 登录 | 立即注册

    本版积分规则

    QQ|Archiver|手机版|小黑屋|影迷乐园

    GMT+8, 2022-1-20 18:30 , Processed in 0.096074 second(s), 28 queries .

    Powered by Discuz! X3.4

    Copyright © 2001-2020, Tencent Cloud.

    快速回复 返回顶部 返回列表