请选择 进入手机版 | 继续访问电脑版

YMLY-影迷乐园-特效字幕 蓝光原盘 1080P 高清动漫电影电视剧

 找回密码
 立即注册
搜索
查看: 1143|回复: 20

[韩国] [115][2019][1080P][杀之][韩语中字][张基龙.林珍娜.卢正义][MP4][37.3GB]

[复制链接]
  • TA的每日心情

    2021-12-6 09:37
  • 签到天数: 60 天

    [LV.6]常住居民II

    56

    主题

    290

    帖子

    469

    积分

    专业影迷

    Rank: 8Rank: 8

    积分
    469
    发表于 2021-7-2 19:24:00 | 显示全部楼层 |阅读模式


    ◎译  名 杀之 / Blue Eye / Kill it / 杀了它 / 블루 아이
    ◎片  名 킬잇
    ◎年  代 2019
    ◎产  地 韩国
    ◎类  别 剧情
    ◎语  言 韩语
    ◎上映日期 2019-03-23(韩国)
    ◎IMDb评分  7.7/10 from 474 users
    ◎IMDb链接  https://www.imdb.com/title/tt9772814
    ◎豆瓣评分 7.6/10 from 6149 users
    ◎豆瓣链接 https://movie.douban.com/subject/30395582/
    ◎集  数 12
    ◎片  长 60分钟
    ◎导  演 南成宇 Sung-woo Nam
    ◎主  演 张基龙 Jang Ki-yong
           林珍娜 Nana
           卢正义 Jeong-eui Roh
           李才元 Jea-woo Lee
           金贤穆 Kim Hyun-mok
           郑海钧 Hae-kyun Jung
           郑载恩 Jae Eun Jeong
           池一株 Il-joo Ji
           文宇振 Woo-jin Moon
           全镇基 Jin-gi Jeon
           赵汉哲 Han-chul Jo
           孙光业 Kwang-up Son
           金周宪 Joo-Heon Kim
           严彩英 Chae-young Uhm
           崔明彬 Myung-bin Choi
           刘智秀 Ji-soo Yoo


    ◎标  签 韩国 | 犯罪 | 杀手 | 悬疑 | 2019 | 爱情 | 剧情 | OCN

    ◎简  介  

      该剧是讲述被恶魔遗弃的男人和被恶魔抚养的女人,以及为了复仇而追击两人的委托人的故事。被恶魔遗弃的男人为了寻找家人而成为杀手,被恶魔抚养长大的女人是一个刑警,她为了替死去的恋人复仇而追踪杀手金诗勋。

    1. General
    2. Complete name                  : Z:\韩剧\韩剧1080\1\Kill It\Kill It.E01.mp4
    3. Format                         : MPEG-4
    4. Format profile                 : Base Media
    5. Codec ID                       : isom (isom/iso2/mp41)
    6. File size                      : 3.08 GiB
    7. Duration                       : 1 h 1 min
    8. Overall bit rate               : 7 185 kb/s
    9. Writing application            : Lavf58.29.100

    10. Video
    11. ID                             : 1
    12. Format                         : HEVC
    13. Format/Info                    : High Efficiency Video Coding
    14. Format profile                 : [email protected]@High
    15. Codec ID                       : hev1
    16. Codec ID/Info                  : High Efficiency Video Coding
    17. Duration                       : 1 h 1 min
    18. Bit rate                       : 6 986 kb/s
    19. Width                          : 1 920 pixels
    20. Height                         : 1 080 pixels
    21. Display aspect ratio           : 16:9
    22. Frame rate mode                : Constant
    23. Frame rate                     : 29.970 (29970/1000) FPS
    24. Color space                    : YUV
    25. Chroma subsampling             : 4:2:0
    26. Bit depth                      : 8 bits
    27. Scan type                      : Interlaced
    28. Scan type, store method        : Interleaved fields
    29. Scan order                     : Top Field First
    30. Bits/(Pixel*Frame)             : 0.112
    31. Stream size                    : 3.00 GiB (97%)
    32. Codec configuration box        : hvcC

    33. Audio
    34. ID                             : 2
    35. Format                         : AAC LC
    36. Format/Info                    : Advanced Audio Codec Low Complexity
    37. Codec ID                       : mp4a-40-2
    38. Duration                       : 1 h 1 min
    39. Duration_LastFrame             : -11 ms
    40. Bit rate mode                  : Constant
    41. Bit rate                       : 192 kb/s
    42. Channel(s)                     : 2 channels
    43. Channel layout                 : L R
    44. Sampling rate                  : 48.0 kHz
    45. Frame rate                     : 46.875 FPS (1024 SPF)
    46. Compression mode               : Lossy
    47. Stream size                    : 84.5 MiB (3%)
    48. Language                       : English
    49. Default                        : Yes
    50. Alternate group                : 1

    复制代码

    购买主题 已有 8 人购买  本主题需向作者支付 50 大洋 才能浏览
    回复

    使用道具 举报

    该用户从未签到

    4

    主题

    148

    帖子

    20

    积分

    入门影迷

    Rank: 1

    积分
    20
    发表于 2021-7-2 19:58:24 | 显示全部楼层
    杀之]杀之]杀之]杀之]杀之]杀之]
    回复

    使用道具 举报

  • TA的每日心情

    2022-1-1 06:43
  • 签到天数: 447 天

    [LV.9]以坛为家II

    32

    主题

    666

    帖子

    912

    积分

    资深影迷

    Rank: 10Rank: 10Rank: 10

    积分
    912

    土豪勋章小土豪勋章

    发表于 2021-7-2 20:17:17 | 显示全部楼层
    杀之 yyds 张基龙与林珍娜绝配!
    购买前请看标题,大部分只用115网盘分享。
    回复

    使用道具 举报

  • TA的每日心情
    奋斗
    19 小时前
  • 签到天数: 422 天

    [LV.9]以坛为家II

    31

    主题

    3781

    帖子

    1556

    积分

    稀有影迷

    Rank: 12Rank: 12Rank: 12

    积分
    1556
    发表于 2021-7-2 21:53:47 | 显示全部楼层
    感谢分享好资源
    回复

    使用道具 举报

  • TA的每日心情
    开心
    2021-10-20 15:05
  • 签到天数: 62 天

    [LV.6]常住居民II

    0

    主题

    2039

    帖子

    169

    积分

    高级影迷

    Rank: 4

    积分
    169
    发表于 2021-7-2 22:08:04 | 显示全部楼层
    能起这片名 也是把孔夫子的文化学到了
    回复

    使用道具 举报

  • TA的每日心情
    奋斗
    3 小时前
  • 签到天数: 44 天

    [LV.5]常住居民I

    1

    主题

    120

    帖子

    30

    积分

    初级影迷

    Rank: 2

    积分
    30
    发表于 2021-7-2 22:26:04 | 显示全部楼层
    感谢分享!!!!!!!
    回复

    使用道具 举报

  • TA的每日心情
    难过
    昨天 07:11
  • 签到天数: 266 天

    [LV.8]以坛为家I

    2

    主题

    2599

    帖子

    412

    积分

    超级影迷

    Rank: 6Rank: 6

    积分
    412
    发表于 2021-7-3 00:09:12 | 显示全部楼层
    谢谢分享!!!!!!!!
    回复

    使用道具 举报

  • TA的每日心情
    开心
    15 分钟前
  • 签到天数: 434 天

    [LV.9]以坛为家II

    0

    主题

    2259

    帖子

    378

    积分

    超级影迷

    Rank: 6Rank: 6

    积分
    378
    发表于 2021-7-3 00:44:14 | 显示全部楼层
    非常好看的电视剧,多谢啦
    回复

    使用道具 举报

    该用户从未签到

    0

    主题

    374

    帖子

    78

    积分

    中级影迷

    Rank: 3Rank: 3

    积分
    78
    发表于 2021-7-3 03:50:42 | 显示全部楼层
    谢谢分享!!!!!!!!!!!
    回复

    使用道具 举报

  • TA的每日心情
    开心
    半小时前
  • 签到天数: 244 天

    [LV.8]以坛为家I

    0

    主题

    2907

    帖子

    408

    积分

    超级影迷

    Rank: 6Rank: 6

    积分
    408
    发表于 2021-7-3 07:09:49 | 显示全部楼层
    不错不错不错不错吧
    回复

    使用道具 举报

    您需要登录后才可以回帖 登录 | 立即注册

    本版积分规则

    QQ|Archiver|手机版|小黑屋|影迷乐园

    GMT+8, 2022-1-20 19:58 , Processed in 0.088834 second(s), 28 queries .

    Powered by Discuz! X3.4

    Copyright © 2001-2020, Tencent Cloud.

    快速回复 返回顶部 返回列表