请选择 进入手机版 | 继续访问电脑版

YMLY-影迷乐园-特效字幕 蓝光原盘 1080P 高清动漫电影电视剧

 找回密码
 立即注册
搜索
查看: 13708|回复: 105

[大陆] [115+百度][1991][1080P][葫芦兄弟第二部:葫芦小金刚.上美高清修复系列][1-6话全][国语无字][6.82GB][MKV][Gourd.Small.Diamond.1991.Complete.Webrip.1080p.MNHD-FRDS]

  [复制链接]
  • TA的每日心情
    奋斗
    2020-2-21 00:36
  • 签到天数: 656 天

    [LV.9]以坛为家II

    1万

    主题

    1万

    帖子

    22万

    积分

    超级版主

    与齐同行,是最初的梦想,也是一辈子的执着~

    Rank: 16Rank: 16Rank: 16Rank: 16

    积分
    221119

    内测勋章最佳新人十二生肖之猴VIP包月勋章影迷男神小土豪勋章土豪勋章富甲一方精华勋章金话筒主题达人灌水之王

    发表于 2020-9-14 00:29:29 | 显示全部楼层 |阅读模式
    下载说明:

    百度网盘分享极其不稳定,如有链接失效,请第一时间站内短消息通知我,上线后会第一时间补发!请大家多多谅解!电驴链接只能115会员离线下载,其它工具都下载不了!


    ----转载自FRDS,感谢压制和原发布人员,特此鸣谢!----


    制作说明:

    Source:葫芦小金刚.Gourd.Small.Diamond.1991.Complete.WEB-DL.1080P.H264.AAC.Mandarin-OPS
    Encode:打工仔




    ◎译  名 葫芦兄弟第二部/葫芦娃第二部/金刚葫芦娃
    ◎片  名 葫芦小金刚
    ◎年  代 1991
    ◎产  地 中国大陆
    ◎类  别 剧情 / 动作 / 动画
    ◎语  言 汉语普通话
    ◎上映日期 1991-01-01(中国大陆)
    ◎豆瓣评分 9.1/10 from 29368 users
    ◎豆瓣链接 https://movie.douban.com/subject/3069864/
    ◎集  数 6
    ◎片  长 19分钟
    ◎导  演 胡进庆 Jinqing Hu / 葛桂云 Guiyun Ge / 周克勤 Keqin Zhou  / 沈祖慰 Zuwei Shen
    ◎编  剧 姚忠礼 Zhongli Yao / 杨玉良 Yuliang Yang / 胡进庆 Jinqing Hu
    ◎主  演 于鼎 Ding Yu
           谈鹏飞 Pengfei Tan
           朱莎 Sha Zhu

    ◎标  签 动画 | 国产动画 | 童年 | 童年回忆 | 经典 | 中国 | 葫芦小金刚 | 大陆

    ◎简  介

      经过一番激烈的搏斗,葫芦七兄弟团结一心,终于把蛇精和蝎子精打败,七兄弟化作七色奇峰,将妖精镇压山下。葫芦兄弟和妖精的战争惊动了住在山中另一边的青蛇精。青蛇精是蛇精夫人的妹妹,她比姐姐更加狡猾。得知葫芦山争斗的始末,青蛇精决定将葫芦娃们抓来炼成长生不老的七心丹,替姐姐报仇。
      
      葫芦七兄弟虽然勇猛非常,却不敌妖怪的狡猾。青蛇精采取各个击破的战术,利用锦囊中的宝物将七兄弟一一降伏。一番斗智斗勇过后,葫芦兄弟全部成为青蛇精的俘虏。原本想炼成七心丹的青蛇精,却没留神炼出综合了七兄弟本领的葫芦小金刚。葫芦小金刚和妖精的战争更加激烈……
      
      本片荣获1991年广播电影电视部优秀影片奖第二届全国影视动画展播荣誉奖。
    1. General
    2. Unique ID                   : 171562742850039499728185722875750639233 (0x8111C84A07B53E0CC36ACC950107E681)
    3. Complete name               : D:\Seed\Gourd.Small.Diamond.1991.Complete.Webrip.1080p.MNHD-FRDS\Gourd.Small.Diamond.1991.E01.Webrip.1080p.x265.10bit.AAC.MNHD-FRDS.mkv
    4. Format                      : Matroska
    5. Format version              : Version 4
    6. File size                   : 1.02 GiB
    7. Duration                    : 19 min 38 s
    8. Overall bit rate            : 7 451 kb/s
    9. Encoded date                : UTC 2020-09-05 12:45:36
    10. Writing application         : mkvmerge v48.0.0 ('Fortress Around Your Heart') 64-bit
    11. Writing library             : libebml v1.4.0 + libmatroska v1.6.0

    12. Video
    13. ID                          : 1
    14. Format                      : HEVC
    15. Format/Info                 : High Efficiency Video Coding
    16. Format profile              : Main [email protected]@High
    17. Codec ID                    : V_MPEGH/ISO/HEVC
    18. Duration                    : 19 min 38 s
    19. Bit rate                    : 7 131 kb/s
    20. Width                       : 1 798 pixels
    21. Height                      : 1 080 pixels
    22. Display aspect ratio        : 5:3
    23. Frame rate mode             : Constant
    24. Frame rate                  : 24.000 FPS
    25. Color space                 : YUV
    26. Chroma subsampling          : 4:2:0
    27. Bit depth                   : 10 bits
    28. Bits/(Pixel*Frame)          : 0.153
    29. Stream size                 : 1 002 MiB (96%)
    30. Writing library             : x265 3.4+7-g38774073d:[Windows][GCC 10.1.0][64 bit] 10bit
    31. Encoding settings           : cpuid=1111039 / frame-threads=2 / numa-pools=4 / wpp / pmode / no-pme / no-psnr / no-ssim / log-level=2 / input-csp=1 / input-res=1798x1080 / interlace=0 / total-frames=28278 / level-idc=0 / high-tier=1 / uhd-bd=0 / ref=4 / no-allow-non-conformance / no-repeat-headers / annexb / no-aud / no-hrd / info / hash=0 / no-temporal-layers / no-open-gop / min-keyint=24 / keyint=250 / gop-lookahead=0 / bframes=10 / b-adapt=2 / b-pyramid / bframe-bias=0 / rc-lookahead=80 / lookahead-slices=0 / scenecut=40 / hist-scenecut=0 / radl=0 / no-splice / no-intra-refresh / ctu=32 / min-cu-size=8 / no-rect / no-amp / max-tu-size=32 / tu-inter-depth=4 / tu-intra-depth=4 / limit-tu=0 / rdoq-level=2 / dynamic-rd=0.00 / no-ssim-rd / signhide / tskip / nr-intra=0 / nr-inter=0 / no-constrained-intra / no-strong-intra-smoothing / max-merge=5 / limit-refs=0 / no-limit-modes / me=3 / subme=7 / merange=44 / temporal-mvp / no-frame-dup / no-hme / weightp / weightb / no-analyze-src-pics / deblock=-1:-1 / no-sao / no-sao-non-deblock / rd=4 / selective-sao=0 / no-early-skip / no-rskip / no-fast-intra / no-tskip-fast / no-cu-lossless / b-intra / no-splitrd-skip / rdpenalty=0 / psy-rd=2.00 / psy-rdoq=1.00 / no-rd-refine / no-lossless / cbqpoffs=-2 / crqpoffs=-2 / rc=crf / crf=21.0 / qcomp=0.65 / qpstep=4 / stats-write=0 / stats-read=0 / vbv-maxrate=160000 / vbv-bufsize=160000 / vbv-init=0.9 / crf-max=0.0 / crf-min=0.0 / ipratio=1.30 / pbratio=1.20 / aq-mode=2 / aq-strength=0.90 / no-cutree / zone-count=0 / no-strict-cbr / qg-size=8 / no-rc-grain / qpmax=69 / qpmin=0 / no-const-vbv / sar=0 / overscan=0 / videoformat=5 / range=0 / colorprim=1 / transfer=1 / colormatrix=1 / chromaloc=0 / display-window=0 / cll=0,0 / min-luma=0 / max-luma=1023 / log2-max-poc-lsb=8 / vui-timing-info / vui-hrd-info / slices=1 / no-opt-qp-pps / no-opt-ref-list-length-pps / no-multi-pass-opt-rps / scenecut-bias=0.05 / hist-threshold=0.01 / no-opt-cu-delta-qp / no-aq-motion / no-hdr10 / no-hdr10-opt / no-dhdr10-opt / no-idr-recovery-sei / analysis-reuse-level=0 / analysis-save-reuse-level=0 / analysis-load-reuse-level=0 / scale-factor=0 / refine-intra=0 / refine-inter=0 / refine-mv=1 / refine-ctu-distortion=0 / no-limit-sao / ctu-info=0 / no-lowpass-dct / refine-analysis-type=0 / copy-pic=1 / max-ausize-factor=1.0 / no-dynamic-refine / no-single-sei / no-hevc-aq / no-svt / no-field / qp-adaptation-range=1.00 / no-scenecut-aware-qpconformance-window-offsets / right=0 / bottom=0 / decoder-max-rate=0
    32. Default                     : Yes
    33. Forced                      : No
    34. Color range                 : Limited
    35. Color primaries             : BT.709
    36. Transfer characteristics    : BT.709
    37. Matrix coefficients         : BT.709

    38. Audio
    39. ID                          : 2
    40. Format                      : AAC LC
    41. Format/Info                 : Advanced Audio Codec Low Complexity
    42. Codec ID                    : A_AAC-2
    43. Duration                    : 19 min 38 s
    44. Bit rate                    : 317 kb/s
    45. Channel(s)                  : 2 channels
    46. Channel layout              : L R
    47. Sampling rate               : 48.0 kHz
    48. Frame rate                  : 46.875 FPS (1024 SPF)
    49. Compression mode            : Lossy
    50. Stream size                 : 44.6 MiB (4%)
    51. Language                    : Chinese
    52. Default                     : Yes
    53. Forced                      : No
    复制代码


    购买主题 已有 82 人购买  本主题需向作者支付 20 大洋 才能浏览

    相关帖子

    郑重声明:
    本人提供的所有影视作品均是在网上搜集,任何涉及商业盈利目的均不得使用,否则产生的一切后果将由您自己承担!
    本人不对本人所发布的任何内容负任何法律责任!该下载内容仅做宽带测试使用,请在下载后24小时内删除。请购买正版!
    本人列出的文件没有保存在本站的服务器上,本人仅负责连接,本人对被传播文件的内容一无所知。
    如侵犯视频原作者或发行商版权,请联系本人删除!
    回复

    使用道具 举报

  • TA的每日心情
    慵懒
    2022-1-11 20:39
  • 签到天数: 287 天

    [LV.8]以坛为家I

    1

    主题

    1420

    帖子

    193

    积分

    高级影迷

    Rank: 4

    积分
    193
    发表于 2020-9-14 00:59:37 | 显示全部楼层
    多谢发布~~
    回复

    使用道具 举报

  • TA的每日心情
    慵懒
    2022-1-11 20:39
  • 签到天数: 287 天

    [LV.8]以坛为家I

    1

    主题

    1420

    帖子

    193

    积分

    高级影迷

    Rank: 4

    积分
    193
    发表于 2020-9-14 01:02:49 | 显示全部楼层
    多谢发布~~
    回复

    使用道具 举报

  • TA的每日心情
    开心
    12 小时前
  • 签到天数: 599 天

    [LV.9]以坛为家II

    5

    主题

    1081

    帖子

    59

    积分

    初级影迷

    Rank: 2

    积分
    59
    发表于 2020-9-14 02:18:45 | 显示全部楼层
    感谢分享!
    回复

    使用道具 举报

  • TA的每日心情
    开心
    前天 10:41
  • 签到天数: 508 天

    [LV.9]以坛为家II

    31

    主题

    5531

    帖子

    875

    积分

    资深影迷

    Rank: 10Rank: 10Rank: 10

    积分
    875
    发表于 2020-9-14 08:16:35 | 显示全部楼层
    感谢分享,支持一下
    回复

    使用道具 举报

  • TA的每日心情
    开心
    8 小时前
  • 签到天数: 525 天

    [LV.9]以坛为家II

    3

    主题

    1986

    帖子

    404

    积分

    超级影迷

    Rank: 6Rank: 6

    积分
    404
    发表于 2020-9-14 09:17:19 | 显示全部楼层
    感谢分享!
    回复

    使用道具 举报

  • TA的每日心情
    难过
    9 小时前
  • 签到天数: 356 天

    [LV.8]以坛为家I

    7

    主题

    2486

    帖子

    644

    积分

    专业影迷

    Rank: 8Rank: 8

    积分
    644

    土豪勋章

    发表于 2020-9-14 09:31:58 | 显示全部楼层
    感谢分享!
    回复

    使用道具 举报

  • TA的每日心情

    前天 19:25
  • 签到天数: 356 天

    [LV.8]以坛为家I

    9

    主题

    3024

    帖子

    236

    积分

    高级影迷

    Rank: 4

    积分
    236
    发表于 2020-9-14 10:50:10 | 显示全部楼层
    感谢分享!
    回复

    使用道具 举报

  • TA的每日心情

    前天 19:25
  • 签到天数: 356 天

    [LV.8]以坛为家I

    9

    主题

    3024

    帖子

    236

    积分

    高级影迷

    Rank: 4

    积分
    236
    发表于 2020-9-14 10:50:28 | 显示全部楼层
    感谢分享!
    回复

    使用道具 举报

  • TA的每日心情
    开心
    9 小时前
  • 签到天数: 544 天

    [LV.9]以坛为家II

    2

    主题

    6032

    帖子

    1054

    积分

    资深影迷

    Rank: 10Rank: 10Rank: 10

    积分
    1054
    发表于 2020-9-14 11:08:33 | 显示全部楼层
    谢谢楼主分享
    回复

    使用道具 举报

    您需要登录后才可以回帖 登录 | 立即注册

    本版积分规则

    QQ|Archiver|手机版|小黑屋|影迷乐园

    GMT+8, 2022-1-20 19:48 , Processed in 0.097524 second(s), 31 queries .

    Powered by Discuz! X3.4

    Copyright © 2001-2020, Tencent Cloud.

    快速回复 返回顶部 返回列表