请选择 进入手机版 | 继续访问电脑版

YMLY-影迷乐园-特效字幕 蓝光原盘 1080P 高清动漫电影电视剧

 找回密码
 立即注册
搜索
查看: 9625|回复: 56

[大陆] [百度][1993][4K][特别车队.上美高清修复系列][13话全][国语无字][5.28GB][MP4][Special.Motorcade.1993.WEB-DL.4K.H265.AAC-PTerWEB]

  [复制链接]
  • TA的每日心情
    慵懒
    昨天 10:44
  • 签到天数: 504 天

    [LV.9]以坛为家II

    338

    主题

    1336

    帖子

    1万

    积分

    超级版主

    Rank: 16Rank: 16Rank: 16Rank: 16

    积分
    11231

    超版勋章版主勋章优秀版主富甲一方土豪勋章小土豪勋章精华勋章主题达人百分百好孩子音乐之星知识勋章最佳新人十二生肖之猴双鱼座勋章

    发表于 2020-7-24 09:49:13 | 显示全部楼层 |阅读模式
    下载说明:

    百度网盘分享极其不稳定,如有链接失效,请第一时间站内短消息通知我,上线后会第一时间补发!






    ◎译  名 
    ◎片  名 特别车队
    ◎年  代 1993
    ◎产  地 中国 / 上海美术电影制片厂
    ◎类  别 剧情 / 动作 / 动画 / 儿童 / 冒险
    ◎语  言 中文
    ◎上映日期 1993
    ◎豆瓣评分 8.7/10 from 1988 users
    ◎豆瓣链接 https://movie.douban.com/subject/2244569/
    ◎集  数 13
    ◎片  长 18分钟
    ◎导  演 杨凯华
    ◎编  剧 包蕾 Lei Bao / 龚运华 / 李绍然
    ◎主  演 翁振新
           韦启昌
           洪海天 Haitian Hong
           史履春
           梁正晖 Zhenghui Liang


    ◎标  签 国产动画 | 动画 | 童年回忆 | 经典 | 中国 | 童年 | 中国动画 | 1993

    ◎简  介  

      《特别车队》是一部以动物为主角的黑帮题材动画片,是当年少有的剧情不低幼的动画片,属于剧情型。里面的特别车队是一群特种兵,团长是狮子,大伙叫他“狮哥”,还有牛哥,象哥,猴上尉等等,以及一个叫妮妮的女熊猫。坏蛋颇有个性,叫“老狒”,是只狒狒,还有一只独眼山猫,他们还有个上司,叫“教父”,是只羊。里面的枪战很火暴,黑帮味很浓,让人难以相信国产片也有这样题材的。

    1. General
    2. Complete name                  : Special.Motorcade.1993.E01.WEB-DL.4K.H265.AAC-PTerWEB.mp4
    3. Format                         : MPEG-4
    4. Format profile                 : Base Media
    5. Codec ID                       : isom (isom/iso2/mp41)
    6. File size                      : 421 MiB
    7. Duration                       : 18 min 34 s
    8. Overall bit rate mode          : Variable
    9. Overall bit rate               : 3 170 kb/s
    10. Writing application            : Lavf58.35.100

    11. Video
    12. ID                             : 1
    13. Format                         : HEVC
    14. Format/Info                    : High Efficiency Video Coding
    15. Format profile                 : [email protected]@Main
    16. Codec ID                       : hev1
    17. Codec ID/Info                  : High Efficiency Video Coding
    18. Duration                       : 18 min 34 s
    19. Bit rate                       : 3 035 kb/s
    20. Width                          : 3 840 pixels
    21. Height                         : 2 160 pixels
    22. Display aspect ratio           : 16:9
    23. Frame rate mode                : Variable
    24. Frame rate                     : 24.000 FPS
    25. Minimum frame rate             : 23.994 FPS
    26. Maximum frame rate             : 24.006 FPS
    27. Color space                    : YUV
    28. Chroma subsampling             : 4:2:0
    29. Bit depth                      : 8 bits
    30. Bits/(Pixel*Frame)             : 0.015
    31. Stream size                    : 403 MiB (96%)
    32. Codec configuration box        : hvcC

    33. Audio
    34. ID                             : 2
    35. Format                         : AAC LC
    36. Format/Info                    : Advanced Audio Codec Low Complexity
    37. Codec ID                       : mp4a-40-2
    38. Duration                       : 18 min 34 s
    39. Bit rate mode                  : Variable
    40. Bit rate                       : 128 kb/s
    41. Maximum bit rate               : 133 kb/s
    42. Channel(s)                     : 2 channels
    43. Channel layout                 : L R
    44. Sampling rate                  : 48.0 kHz
    45. Frame rate                     : 46.875 FPS (1024 SPF)
    46. Compression mode               : Lossy
    47. Stream size                    : 17.0 MiB (4%)
    48. Default                        : Yes
    49. Alternate group                : 1
    复制代码










    购买主题 已有 43 人购买  本主题需向作者支付 20 大洋 才能浏览
    回复

    使用道具 举报

  • TA的每日心情
    无聊
    2021-12-25 08:58
  • 签到天数: 33 天

    [LV.5]常住居民I

    0

    主题

    127

    帖子

    36

    积分

    初级影迷

    Rank: 2

    积分
    36
    发表于 2020-7-24 10:33:46 | 显示全部楼层
    多谢分享。
    回复

    使用道具 举报

  • TA的每日心情

    2021-8-30 17:33
  • 签到天数: 213 天

    [LV.7]常住居民III

    2

    主题

    1406

    帖子

    278

    积分

    超级影迷

    Rank: 6Rank: 6

    积分
    278

    小土豪勋章

    发表于 2020-7-24 17:14:38 | 显示全部楼层
    都收藏了啊   
    回复

    使用道具 举报

    该用户从未签到

    0

    主题

    670

    帖子

    132

    积分

    中级影迷

    Rank: 3Rank: 3

    积分
    132
    发表于 2020-7-24 18:34:43 | 显示全部楼层
    非常感谢!!!!
    回复

    使用道具 举报

  • TA的每日心情
    开心
    6 小时前
  • 签到天数: 609 天

    [LV.9]以坛为家II

    2

    主题

    1075

    帖子

    254

    积分

    超级影迷

    Rank: 6Rank: 6

    积分
    254
    发表于 2020-7-25 00:18:18 | 显示全部楼层
    感谢楼主分享
    回复

    使用道具 举报

  • TA的每日心情
    奋斗
    2021-7-28 09:23
  • 签到天数: 54 天

    [LV.5]常住居民I

    59

    主题

    286

    帖子

    2237

    积分

    稀有影迷

    Rank: 12Rank: 12Rank: 12

    积分
    2237
    发表于 2020-7-25 09:01:55 | 显示全部楼层
    这部也收了,谢谢楼主。
    回复

    使用道具 举报

  • TA的每日心情
    开心
    昨天 09:21
  • 签到天数: 229 天

    [LV.7]常住居民III

    8

    主题

    469

    帖子

    296

    积分

    超级影迷

    Rank: 6Rank: 6

    积分
    296
    发表于 2020-7-26 12:52:06 | 显示全部楼层
    这些都是精品的东西
    回复

    使用道具 举报

  • TA的每日心情

    2021-8-30 17:33
  • 签到天数: 213 天

    [LV.7]常住居民III

    2

    主题

    1406

    帖子

    278

    积分

    超级影迷

    Rank: 6Rank: 6

    积分
    278

    小土豪勋章

    发表于 2020-7-26 13:01:32 | 显示全部楼层
    谢谢楼主分享   
    回复

    使用道具 举报

  • TA的每日心情

    2021-8-30 17:33
  • 签到天数: 213 天

    [LV.7]常住居民III

    2

    主题

    1406

    帖子

    278

    积分

    超级影迷

    Rank: 6Rank: 6

    积分
    278

    小土豪勋章

    发表于 2020-7-26 21:21:39 | 显示全部楼层
    都很不错啊
    回复

    使用道具 举报

  • TA的每日心情
    奋斗
    昨天 18:53
  • 签到天数: 547 天

    [LV.9]以坛为家II

    1

    主题

    950

    帖子

    76

    积分

    中级影迷

    Rank: 3Rank: 3

    积分
    76
    发表于 2020-7-26 22:16:39 | 显示全部楼层
    这个就牛逼了
    回复

    使用道具 举报

    您需要登录后才可以回帖 登录 | 立即注册

    本版积分规则

    QQ|Archiver|手机版|小黑屋|影迷乐园

    GMT+8, 2022-1-20 18:04 , Processed in 0.093721 second(s), 31 queries .

    Powered by Discuz! X3.4

    Copyright © 2001-2020, Tencent Cloud.

    快速回复 返回顶部 返回列表