请选择 进入手机版 | 继续访问电脑版

YMLY-影迷乐园-特效字幕 蓝光原盘 1080P 高清动漫电影电视剧

 找回密码
 立即注册
搜索
查看: 8899|回复: 50

[大陆] [百度][1991][4K][镜花缘.上美高清修复系列][4话全][国语无字][1.39GB][MP4][Flowers.in.the.Mirror.1991.WEB-DL.4K.H265.AAC-PTerWEB]

[复制链接]
  • TA的每日心情
    慵懒
    昨天 10:44
  • 签到天数: 504 天

    [LV.9]以坛为家II

    338

    主题

    1336

    帖子

    1万

    积分

    超级版主

    Rank: 16Rank: 16Rank: 16Rank: 16

    积分
    11231

    超版勋章版主勋章优秀版主富甲一方土豪勋章小土豪勋章精华勋章主题达人百分百好孩子音乐之星知识勋章最佳新人十二生肖之猴双鱼座勋章

    发表于 2020-7-24 09:36:12 | 显示全部楼层 |阅读模式
    下载说明:

    百度网盘分享极其不稳定,如有链接失效,请第一时间站内短消息通知我,上线后会第一时间补发!







    ◎译  名 
    ◎片  名 镜花缘
    ◎年  代 1991
    ◎产  地 中国大陆
    ◎类  别 动画 / 短片 / 奇幻 / 古装
    ◎语  言 汉语普通话
    ◎豆瓣评分 9.0/10 from 18630 users
    ◎豆瓣链接 https://movie.douban.com/subject/1888063/
    ◎集  数 4
    ◎片  长 19分钟
    ◎导  演 胡兆洪 Zhaohong Hu / 邹勤 Qin Zhou
    ◎编  剧 李汝珍 / 邹勤 Qin Zhou / 王大为

    ◎标  签 国产动画 | 动画 | 童年 | 木偶剧 | 中国 | 中国动画 | 大陆 | 经典

    ◎简  介  

      唐武皇时期,秀才唐敖科举失意,心怀抑郁。在妻兄林之洋的邀请下,他随船队出海经商,四海巡游。造访了君子国、女儿国、大人国、两面国、无肠国、穿胸国等民俗各异的国家,一路发生许多刺激和有趣的事情。
      改编自清小说家李汝珍的同名作品。影片第4集《两面国》获1991年度广播电影电视部优秀影片奖和1993年第二届中国影视动画展播荣誉奖。


    1. General
    2. Complete name                  : Flowers.in.the.Mirror.1991.E01.WEB-DL.4K.H265.AAC-PTerWEB.mp4
    3. Format                         : MPEG-4
    4. Format profile                 : Base Media
    5. Codec ID                       : isom (isom/iso2/mp41)
    6. File size                      : 304 MiB
    7. Duration                       : 20 min 29 s
    8. Overall bit rate               : 2 073 kb/s
    9. Writing application            : Lavf58.35.100

    10. Video
    11. ID                             : 1
    12. Format                         : HEVC
    13. Format/Info                    : High Efficiency Video Coding
    14. Format profile                 : [email protected]@Main
    15. Codec ID                       : hev1
    16. Codec ID/Info                  : High Efficiency Video Coding
    17. Duration                       : 20 min 29 s
    18. Bit rate                       : 1 938 kb/s
    19. Width                          : 3 840 pixels
    20. Height                         : 2 160 pixels
    21. Display aspect ratio           : 16:9
    22. Frame rate mode                : Variable
    23. Frame rate                     : 24.000 FPS
    24. Minimum frame rate             : 23.994 FPS
    25. Maximum frame rate             : 24.006 FPS
    26. Color space                    : YUV
    27. Chroma subsampling             : 4:2:0
    28. Bit depth                      : 8 bits
    29. Bits/(Pixel*Frame)             : 0.010
    30. Stream size                    : 284 MiB (93%)
    31. Codec configuration box        : hvcC

    32. Audio
    33. ID                             : 2
    34. Format                         : AAC LC
    35. Format/Info                    : Advanced Audio Codec Low Complexity
    36. Codec ID                       : mp4a-40-2
    37. Duration                       : 20 min 29 s
    38. Bit rate mode                  : Constant
    39. Bit rate                       : 128 kb/s
    40. Channel(s)                     : 2 channels
    41. Channel layout                 : L R
    42. Sampling rate                  : 48.0 kHz
    43. Frame rate                     : 46.875 FPS (1024 SPF)
    44. Compression mode               : Lossy
    45. Stream size                    : 18.8 MiB (6%)
    46. Default                        : Yes
    47. Alternate group                : 1
    复制代码












    购买主题 已有 42 人购买  本主题需向作者支付 10 大洋 才能浏览
    回复

    使用道具 举报

  • TA的每日心情
    开心
    2020-8-20 02:32
  • 签到天数: 12 天

    [LV.3]偶尔看看II

    8

    主题

    483

    帖子

    157

    积分

    高级影迷

    Rank: 4

    积分
    157
    发表于 2020-7-24 09:50:20 | 显示全部楼层
    感谢楼主分享
    回复

    使用道具 举报

  • TA的每日心情
    无聊
    2021-12-25 08:58
  • 签到天数: 33 天

    [LV.5]常住居民I

    0

    主题

    127

    帖子

    36

    积分

    初级影迷

    Rank: 2

    积分
    36
    发表于 2020-7-24 10:29:50 | 显示全部楼层
    感谢楼主分享
    回复

    使用道具 举报

  • TA的每日心情
    开心
    19 小时前
  • 签到天数: 580 天

    [LV.9]以坛为家II

    0

    主题

    939

    帖子

    256

    积分

    超级影迷

    Rank: 6Rank: 6

    积分
    256
    发表于 2020-7-24 14:18:08 | 显示全部楼层
    这个小时候没看过
    回复

    使用道具 举报

  • TA的每日心情
    开心
    8 小时前
  • 签到天数: 609 天

    [LV.9]以坛为家II

    2

    主题

    1075

    帖子

    254

    积分

    超级影迷

    Rank: 6Rank: 6

    积分
    254
    发表于 2020-7-25 00:19:43 | 显示全部楼层
    感谢楼主分享
    回复

    使用道具 举报

  • TA的每日心情
    奋斗
    2021-7-28 09:23
  • 签到天数: 54 天

    [LV.5]常住居民I

    59

    主题

    286

    帖子

    2237

    积分

    稀有影迷

    Rank: 12Rank: 12Rank: 12

    积分
    2237
    发表于 2020-7-25 09:00:42 | 显示全部楼层
    这部还没看过。
    回复

    使用道具 举报

  • TA的每日心情
    开心
    9 小时前
  • 签到天数: 390 天

    [LV.9]以坛为家II

    0

    主题

    602

    帖子

    230

    积分

    高级影迷

    Rank: 4

    积分
    230
    发表于 2020-7-25 12:35:48 | 显示全部楼层
    国产老动画太需要这种高清修复版了,非常感谢!
    回复

    使用道具 举报

  • TA的每日心情
    开心
    昨天 09:21
  • 签到天数: 229 天

    [LV.7]常住居民III

    8

    主题

    469

    帖子

    296

    积分

    超级影迷

    Rank: 6Rank: 6

    积分
    296
    发表于 2020-7-26 12:53:58 | 显示全部楼层
    还是一样的好看收藏
    回复

    使用道具 举报

  • TA的每日心情

    2021-8-30 17:33
  • 签到天数: 213 天

    [LV.7]常住居民III

    2

    主题

    1406

    帖子

    278

    积分

    超级影迷

    Rank: 6Rank: 6

    积分
    278

    小土豪勋章

    发表于 2020-7-26 13:01:15 | 显示全部楼层
    很多优质资源
    回复

    使用道具 举报

  • TA的每日心情
    难过
    9 小时前
  • 签到天数: 614 天

    [LV.9]以坛为家II

    3

    主题

    1223

    帖子

    98

    积分

    中级影迷

    Rank: 3Rank: 3

    积分
    98
    发表于 2020-7-27 10:42:22 | 显示全部楼层
    感谢分享!
    回复

    使用道具 举报

    您需要登录后才可以回帖 登录 | 立即注册

    本版积分规则

    QQ|Archiver|手机版|小黑屋|影迷乐园

    GMT+8, 2022-1-20 19:58 , Processed in 0.082913 second(s), 31 queries .

    Powered by Discuz! X3.4

    Copyright © 2001-2020, Tencent Cloud.

    快速回复 返回顶部 返回列表