请选择 进入手机版 | 继续访问电脑版

YMLY-影迷乐园-特效字幕 蓝光原盘 1080P 高清动漫电影电视剧

 找回密码
 立即注册
搜索
查看: 7184|回复: 47

[大陆] [百度][1992][4K][怪老头儿.上美高清修复系列][4话全][国语无字][1.24GB][MP4][Guai.Lao.Tou.1992.WEB-DL.4K.H265.AAC-PTerWEB]

[复制链接]
  • TA的每日心情
    慵懒
    昨天 10:44
  • 签到天数: 504 天

    [LV.9]以坛为家II

    338

    主题

    1336

    帖子

    1万

    积分

    超级版主

    Rank: 16Rank: 16Rank: 16Rank: 16

    积分
    11231

    超版勋章版主勋章优秀版主富甲一方土豪勋章小土豪勋章精华勋章主题达人百分百好孩子音乐之星知识勋章最佳新人十二生肖之猴双鱼座勋章

    发表于 2020-7-24 09:24:48 | 显示全部楼层 |阅读模式
    下载说明:

    百度网盘分享极其不稳定,如有链接失效,请第一时间站内短消息通知我,上线后会第一时间补发!






    ◎译  名 怪老头系列:怪老头儿
    ◎片  名 怪老头儿
    ◎年  代 1992
    ◎产  地 中国大陆
    ◎类  别 动画 / 短片 / 儿童 / 奇幻 / 冒险
    ◎语  言 汉语普通话
    ◎上映日期 1992
    ◎豆瓣评分 8.8/10 from 15475 users
    ◎豆瓣链接 https://movie.douban.com/subject/1941319/
    ◎集  数 4
    ◎片  长 19分钟
    ◎导  演 尤磊 Lei You / 胡兆洪 Zhaohong Hu / 乔元正 Yuanzheng Qiao
    ◎编  剧 乔元正 Yuanzheng Qiao

    ◎标  签 国产动画 | 动画 | 童年 | 怪老头儿 | 中国 | 童年回忆 | 童年的记忆 | 大陆

    ◎简  介  

      本美术片为系列木偶剧《怪老头儿》的第一集。
      某小学五年级学生赵新新是个武侠迷,没事喜欢露两把刷子,不过他很不爱讲卫生,某天就因吃了脏东西闹肚子疼。站在公交车上捂着肚子回家时,赵新新做好事掏钱为一位咳嗽不止的老爷爷找了个座位,因此和这位自称怪老头的老爷爷认识,几句交谈,赵新新感受到了怪老头的神奇。尔后,怪老头带赵新新来到他的家,一番表演又把赵新新看得目瞪口呆,突然,怪老头要赵新新吞下两只小鸟,好消灭他肚子里作怪的蛔虫,赵新新被吓个半死。

    1. General
    2. Complete name                  : Guai.Lao.Tou.1992.E01.WEB-DL.4K.H265.AAC-PTerWEB.mp4
    3. Format                         : MPEG-4
    4. Format profile                 : Base Media
    5. Codec ID                       : isom (isom/iso2/mp41)
    6. File size                      : 307 MiB
    7. Duration                       : 20 min 21 s
    8. Overall bit rate mode          : Variable
    9. Overall bit rate               : 2 107 kb/s
    10. Writing application            : Lavf58.35.100

    11. Video
    12. ID                             : 1
    13. Format                         : HEVC
    14. Format/Info                    : High Efficiency Video Coding
    15. Format profile                 : [email protected]@Main
    16. Codec ID                       : hev1
    17. Codec ID/Info                  : High Efficiency Video Coding
    18. Duration                       : 20 min 21 s
    19. Bit rate                       : 1 972 kb/s
    20. Width                          : 3 840 pixels
    21. Height                         : 2 160 pixels
    22. Display aspect ratio           : 16:9
    23. Frame rate mode                : Variable
    24. Frame rate                     : 24.000 FPS
    25. Minimum frame rate             : 23.994 FPS
    26. Maximum frame rate             : 24.006 FPS
    27. Color space                    : YUV
    28. Chroma subsampling             : 4:2:0
    29. Bit depth                      : 8 bits
    30. Bits/(Pixel*Frame)             : 0.010
    31. Stream size                    : 287 MiB (94%)
    32. Codec configuration box        : hvcC

    33. Audio
    34. ID                             : 2
    35. Format                         : AAC LC
    36. Format/Info                    : Advanced Audio Codec Low Complexity
    37. Codec ID                       : mp4a-40-2
    38. Duration                       : 20 min 21 s
    39. Bit rate mode                  : Variable
    40. Bit rate                       : 129 kb/s
    41. Channel(s)                     : 2 channels
    42. Channel layout                 : L R
    43. Sampling rate                  : 48.0 kHz
    44. Frame rate                     : 46.875 FPS (1024 SPF)
    45. Compression mode               : Lossy
    46. Stream size                    : 18.6 MiB (6%)
    47. Default                        : Yes
    48. Alternate group                : 1
    复制代码












    购买主题 已有 37 人购买  本主题需向作者支付 10 大洋 才能浏览
    回复

    使用道具 举报

  • TA的每日心情
    开心
    8 小时前
  • 签到天数: 390 天

    [LV.9]以坛为家II

    0

    主题

    602

    帖子

    230

    积分

    高级影迷

    Rank: 4

    积分
    230
    发表于 2020-7-24 09:35:35 | 显示全部楼层
    又来新的了,谢谢分享,沙发。
    回复

    使用道具 举报

  • TA的每日心情
    无聊
    2021-12-25 08:58
  • 签到天数: 33 天

    [LV.5]常住居民I

    0

    主题

    127

    帖子

    36

    积分

    初级影迷

    Rank: 2

    积分
    36
    发表于 2020-7-24 10:24:34 | 显示全部楼层
    感谢楼主分享
    回复

    使用道具 举报

  • TA的每日心情
    开心
    18 小时前
  • 签到天数: 580 天

    [LV.9]以坛为家II

    0

    主题

    939

    帖子

    256

    积分

    超级影迷

    Rank: 6Rank: 6

    积分
    256
    发表于 2020-7-24 14:20:03 | 显示全部楼层
    谢谢楼主分享,这个也没看过
    回复

    使用道具 举报

  • TA的每日心情
    开心
    7 小时前
  • 签到天数: 609 天

    [LV.9]以坛为家II

    2

    主题

    1075

    帖子

    254

    积分

    超级影迷

    Rank: 6Rank: 6

    积分
    254
    发表于 2020-7-25 00:22:16 | 显示全部楼层
    感谢楼主分享
    回复

    使用道具 举报

  • TA的每日心情
    奋斗
    2021-7-28 09:23
  • 签到天数: 54 天

    [LV.5]常住居民I

    59

    主题

    286

    帖子

    2237

    积分

    稀有影迷

    Rank: 12Rank: 12Rank: 12

    积分
    2237
    发表于 2020-7-25 08:59:16 | 显示全部楼层
    感谢,都是经典。
    回复

    使用道具 举报

  • TA的每日心情
    奋斗
    2021-12-23 21:39
  • 签到天数: 269 天

    [LV.8]以坛为家I

    0

    主题

    303

    帖子

    224

    积分

    高级影迷

    Rank: 4

    积分
    224
    发表于 2020-7-25 21:16:57 | 显示全部楼层
    重温童年的回忆,感谢楼主热心分享!
    回复

    使用道具 举报

  • TA的每日心情
    开心
    昨天 09:21
  • 签到天数: 229 天

    [LV.7]常住居民III

    8

    主题

    469

    帖子

    296

    积分

    超级影迷

    Rank: 6Rank: 6

    积分
    296
    发表于 2020-7-26 12:55:16 | 显示全部楼层
    很好看的真是难得的
    回复

    使用道具 举报

  • TA的每日心情

    2021-8-30 17:33
  • 签到天数: 213 天

    [LV.7]常住居民III

    2

    主题

    1406

    帖子

    278

    积分

    超级影迷

    Rank: 6Rank: 6

    积分
    278

    小土豪勋章

    发表于 2020-7-26 13:00:58 | 显示全部楼层
    非常不错啦
    回复

    使用道具 举报

  • TA的每日心情
    难过
    8 小时前
  • 签到天数: 614 天

    [LV.9]以坛为家II

    3

    主题

    1223

    帖子

    98

    积分

    中级影迷

    Rank: 3Rank: 3

    积分
    98
    发表于 2020-7-27 10:44:43 | 显示全部楼层
    感谢分享!
    回复

    使用道具 举报

    您需要登录后才可以回帖 登录 | 立即注册

    本版积分规则

    QQ|Archiver|手机版|小黑屋|影迷乐园

    GMT+8, 2022-1-20 19:25 , Processed in 0.087572 second(s), 31 queries .

    Powered by Discuz! X3.4

    Copyright © 2001-2020, Tencent Cloud.

    快速回复 返回顶部 返回列表