请选择 进入手机版 | 继续访问电脑版

YMLY-影迷乐园-特效字幕 蓝光原盘 1080P 高清动漫电影电视剧

 找回密码
 立即注册
搜索
查看: 9502|回复: 62

[大陆] [百度][1987][4K][邋遢大王奇遇记.上美高清修复系列][13话全][国语无字][3.18GB][MP4][Dirty.King.Adventure.1987.WEB-DL.2160P.H265.AAC-Dave]

  [复制链接]
  • TA的每日心情
    慵懒
    昨天 10:44
  • 签到天数: 504 天

    [LV.9]以坛为家II

    338

    主题

    1336

    帖子

    1万

    积分

    超级版主

    Rank: 16Rank: 16Rank: 16Rank: 16

    积分
    11231

    超版勋章版主勋章优秀版主富甲一方土豪勋章小土豪勋章精华勋章主题达人百分百好孩子音乐之星知识勋章最佳新人十二生肖之猴双鱼座勋章

    发表于 2020-7-19 08:49:43 | 显示全部楼层 |阅读模式
    下载说明:

    百度网盘分享极其不稳定,如有链接失效

    请第一时间站内短消息通知我,上线后会第一时间补发!请大家多多谅解!





    ◎译  名 Dirty King Adventure
    ◎片  名 邋遢大王奇遇记
    ◎年  代 1987
    ◎产  地 中国大陆
    ◎类  别 动画 / 儿童
    ◎语  言 汉语普通话
    ◎上映日期 1987
    ◎豆瓣评分 8.6/10 from 60570 users
    ◎豆瓣链接 https://movie.douban.com/subject/1817169/
    ◎集  数 13
    ◎片  长 10分钟
    ◎导  演 钱运达 Yunda Qian / 阎善春 Shanchun Yan
    ◎编  剧 凌纾 Shu Ling
    ◎主  演 丁建华 Jianhua Ding

    ◎简  介  

      有一个外号邋遢大王的小男孩,他特别邋遢,不讲卫生,信奉“不干不净,吃了没病”。这天,鼠王想征服人类、称霸世界,于是想找个人来当他的细菌武器的试验品。鼠国密探看中了邋遢大王,因为只有他会吃不干净的东西,于是,邋遢大王喝了被老鼠下了药的橘子水后,身子变成了和老鼠一样大小,被老鼠密探骗到了老鼠王国!来到老鼠王国后,邋遢大王真正感到后悔了,想回家却又无奈被关了起来。幸好邋遢大王认识的好友小猫小狗把鼠博士准备在他身上做实验的换掉了,邋遢大王才逃过一劫。邋遢大王最终能否逃出鼠国?

    mediainfo
    1. Complete name                  : Dirty King Adventure 1987 E01 WEB-DL 2160P H265 AAC-Dave.mp4
    2. Format                         : MPEG-4
    3. Format profile                 : Base Media
    4. Codec ID                       : isom (isom/iso2/mp41)
    5. File size                      : 229 MiB
    6. Duration                       : 10 min 31 s
    7. Overall bit rate mode          : Variable
    8. Overall bit rate               : 3 042 kb/s
    9. Writing application            : Lavf57.83.100

    10. Video
    11. ID                             : 1
    12. Format                         : HEVC
    13. Format/Info                    : High Efficiency Video Coding
    14. Format profile                 : [email protected]@Main
    15. Codec ID                       : hev1
    16. Codec ID/Info                  : High Efficiency Video Coding
    17. Duration                       : 10 min 31 s
    18. Bit rate                       : 2 906 kb/s
    19. Width                          : 3 840 pixels
    20. Height                         : 2 160 pixels
    21. Display aspect ratio           : 16:9
    22. Frame rate mode                : Variable
    23. Frame rate                     : 24.000 FPS
    24. Minimum frame rate             : 23.994 FPS
    25. Maximum frame rate             : 24.006 FPS
    26. Color space                    : YUV
    27. Chroma subsampling             : 4:2:0
    28. Bit depth                      : 8 bits
    29. Bits/(Pixel*Frame)             : 0.015
    30. Stream size                    : 219 MiB (96%)
    31. Codec configuration box        : hvcC

    32. Audio
    33. ID                             : 2
    34. Format                         : AAC LC
    35. Format/Info                    : Advanced Audio Codec Low Complexity
    36. Codec ID                       : mp4a-40-2
    37. Duration                       : 10 min 31 s
    38. Bit rate mode                  : Variable
    39. Bit rate                       : 128 kb/s
    40. Maximum bit rate               : 132 kb/s
    41. Channel(s)                     : 2 channels
    42. Channel layout                 : L R
    43. Sampling rate                  : 48.0 kHz
    44. Frame rate                     : 46.875 FPS (1024 SPF)
    45. Compression mode               : Lossy
    46. Stream size                    : 9.64 MiB (4%)
    47. Default                        : Yes
    复制代码





    购买主题 已有 50 人购买  本主题需向作者支付 20 大洋 才能浏览
    回复

    使用道具 举报

  • TA的每日心情
    难过
    2021-11-26 17:07
  • 签到天数: 104 天

    [LV.6]常住居民II

    6

    主题

    310

    帖子

    63

    积分

    初级影迷

    Rank: 2

    积分
    63
    发表于 2020-7-19 09:01:19 | 显示全部楼层
    感谢大神分享上美高清修复系列,多多益善!
    回复

    使用道具 举报

  • TA的每日心情
    奋斗
    前天 13:23
  • 签到天数: 532 天

    [LV.9]以坛为家II

    0

    主题

    1184

    帖子

    82

    积分

    中级影迷

    Rank: 3Rank: 3

    积分
    82
    发表于 2020-7-19 10:16:42 | 显示全部楼层
    谢谢分享,童年的回忆啊。
    回复

    使用道具 举报

  • TA的每日心情
    开心
    8 小时前
  • 签到天数: 436 天

    [LV.9]以坛为家II

    3

    主题

    2039

    帖子

    578

    积分

    专业影迷

    Rank: 8Rank: 8

    积分
    578
    发表于 2020-7-19 10:22:28 | 显示全部楼层
    感谢分享。
    回复

    使用道具 举报

  • TA的每日心情
    开心
    10 小时前
  • 签到天数: 578 天

    [LV.9]以坛为家II

    4

    主题

    759

    帖子

    1036

    积分

    资深影迷

    Rank: 10Rank: 10Rank: 10

    积分
    1036
    发表于 2020-7-19 10:35:38 | 显示全部楼层
    感谢分享。
    回复

    使用道具 举报

  • TA的每日心情
    开心
    19 小时前
  • 签到天数: 580 天

    [LV.9]以坛为家II

    0

    主题

    939

    帖子

    256

    积分

    超级影迷

    Rank: 6Rank: 6

    积分
    256
    发表于 2020-7-19 11:53:46 | 显示全部楼层
    谢谢楼主分享
    回复

    使用道具 举报

  • TA的每日心情
    开心
    2021-12-18 11:52
  • 签到天数: 248 天

    [LV.8]以坛为家I

    1

    主题

    2498

    帖子

    147

    积分

    中级影迷

    Rank: 3Rank: 3

    积分
    147
    发表于 2020-7-19 12:09:15 | 显示全部楼层
    多谢分享!
    回复

    使用道具 举报

  • TA的每日心情
    奋斗
    2021-12-4 09:29
  • 签到天数: 63 天

    [LV.6]常住居民II

    47

    主题

    4187

    帖子

    258

    积分

    超级影迷

    Rank: 6Rank: 6

    积分
    258
    发表于 2020-7-19 12:17:45 | 显示全部楼层
    爱你么么哒
    回复

    使用道具 举报

  • TA的每日心情
    开心
    2021-5-1 08:25
  • 签到天数: 182 天

    [LV.7]常住居民III

    6

    主题

    2483

    帖子

    141

    积分

    中级影迷

    Rank: 3Rank: 3

    积分
    141
    QQ
    发表于 2020-7-19 13:19:51 | 显示全部楼层
    谢谢分享,天天开心
    回复

    使用道具 举报

  • TA的每日心情
    开心
    2020-7-4 19:27
  • 签到天数: 1 天

    [LV.1]初来乍到

    0

    主题

    169

    帖子

    9

    积分

    入门影迷

    Rank: 1

    积分
    9
    发表于 2020-7-19 16:10:19 | 显示全部楼层
    下来看看!!!!!!!
    回复

    使用道具 举报

    您需要登录后才可以回帖 登录 | 立即注册

    本版积分规则

    QQ|Archiver|手机版|小黑屋|影迷乐园

    GMT+8, 2022-1-20 20:01 , Processed in 0.114648 second(s), 32 queries .

    Powered by Discuz! X3.4

    Copyright © 2001-2020, Tencent Cloud.

    快速回复 返回顶部 返回列表